&title=volcanic
&artist=DETRO a.k.a ルゼ
&first=1.43
&des=speckles
&lv_5=14+
&inote_5={16}(191)5,4,5,4,{8}5,6/2,{16}5,6,{8}5,3/4,4/3,
{16}8,7,8,7,{8}8,6/1,{16}3,5,{8}3,1/8,2/7,
{16}5,3,5,3,{8}5,7/8,{16}6,4,{8}6,1/8,1/8,
5/6,{16}3,4,3,4,3,5,2,7,4,6,1,5,{8}3,
{16}8b,7,8,7,{8}8,7/1,{16}5,3,{8}5,4/6,5/3,
{16}7,5,7,5,{8}7,3/4,{16}2,8,{8}2,7/1,2/8,
{16}4,5,4,5,{8}4,6/3,3/6,4,6/3,7/4,
{16}5,6,5,6,{8}5,4/3,5,4/3,8/7,4/3,
{16}5,6,5,6,{8}5,8/2,{16}7,8,{8}7,6/4,3/5,
{16}2,5,2,5,{8}2,4/3,{16}6,2,{8}6,4/5,3/4,
{16}6,3,6,3,{8}6,7/2,{16}8,1,{8}8,7/3,6/2,
{16}4,5,4,3,6,5,6,4,3,4,3,5,1,7,2,6,
4b,3,4,3,{8}4,2/5,{16}3,4,{8}3,6/5,5/4,
{16}7,8,7,8,{8}7,6/5,{16}4,5,{8}4,7/3,8/4,
{16}6,4,6,4,{8}6,5/3,{16}4,6,{8}4,7/5,6/4,
{16}8,1,8,1,{8}8,2/7,1,8/4,3/7,6/2,
{16}3,4,3,4,{8}3,5/6,{16}7,8,{8}7,5/3,3/5,
{16}6,4,6,4,{8}6,4/5,{16}3,6,{8}3,4/7,8/5,
{16}6,5,6,5,3,4,3,4,6,5,6,5,3,1,3,1,
5b,4,{8}5,4b/5b,4/5,{16}1b,8,{8}1,5b/6b,6/5,
4b/3b,3,3/5,3,4/5,5,6/3,6,
2/7,2,2/6,2,8/4,8,8/3,8,
4/7,4,5/2,5,6/3,6,3/4,3,
5/4,5,5/4,5,6/4,7,5/3,4,
7b/5b,7,7/4,7,2/6,2,4/1,1,
8/5,8,1/4,1,6/3,6,6/4,6,
3/7,3,2/5,2,8/4,8,8/5,8,
{16}3/6,4,{8}5,3/6,2/5,{16}4/7,6,{8}5,8/1,7/2,
4b/5b,8,4/5,1,5/6,1,4/5,2,
6/5,1,4/5,8,3/4,7,4/5,8,
5/4-8[8:1],7/2,6/4,5,1/8,3,1/8,5,
2/1,6,2/8,6/3,7/1,3/4,6/5,8,
4b/5b,1,4/5,8,6/5,2,4/5,1,
3/4,7,3/4,8,3/4,1,4/5,2,
8/4-1[8:1],7/3,4/8,6,5/3,8,3/5,7,
3/5,6/2,7/8,8/1,1/2,7/8,1/2,8/1,
3b/4-8[8:1],5,4/7-5[8:1],6,7/2-5[8:1],3,2/8-5[8:1],7,
8/1>4[8:1],2,1/7-5[8:1],8,7/4,4,4/3,4/5,
5-1[8:1]/6-1[8:1],4/7,{4}5/6,{8}3>8[8:1],4,3/5V71[8:1],6,
5,4,6/3-7[8:1],3/7>5[4:1],{4}3,{8}6,6,
7b/1-5[8:1],8,1/6-8[8:1],7,6/3-8[8:1],2,3/5-8[8:1],6,
5/4>1[8:1],3,4/6-8[8:1],5,6/1,1,1/2,1/8,
8-4[8:1]/7-4[8:1],1/6,{4}8/7,{8}2>5[8:1],1,2/8V64[8:1],7,
8,1,7/2-6[8:1],2/6>8[4:1],{4}2,{8}7,7,
4b/5-1[8:1],6,5/8-6[8:1],7,8/3-6[8:1],4,3/1-6[8:1],8,
1/2>5[8:1],3,2/8-6[8:1],1,8/5,5,5/4,5/6,
6-2[8:1]/7-2[8:1],5/8,{4}6/7,{8}4>1[8:1],5,4/6V82[8:1],7,
6,5,7/4-8[8:1],4/8>6[4:1],{4}4,{8}7,7,
8b/3-7[8:1],4,3/6-4[8:1],5,6/1-4[8:1],2,1/7-4[8:1],6,
7/8>3[8:1],1,8/6-4[8:1],7,6/3,3,3/2,3/4,
4-8[8:1]/5-8[8:1],3/6,{4}4/5,{8}2<7[8:1],3,2/4V68[8:1],5,
4,3,5/2-6[8:1],2/6<4[4:1],{4}2,{8}5,5,
7b/8b,{24}3,2,1,{8}8/7,5/4,2/1,5/6,4/5,3/4,
{16}8/7,6,{8}5,{16}1/8,2,{8}3,5/4,5/6,5/4,3/4,
{16}6/7,8,1,2,{8}3/6,4/5,3/5,4/5,4/6,4/7,
5/3,6/5,{16}4/3,5,2,4,3,6,4,7,4,6,3,5,
{8}4b/7b,{24}2,3,4,{8}5/6,8/1,3/4,8/7,1/8,2/1,
{16}5/6,7,{8}8,{16}4/5,3,{8}2,8/1,8/7,8/1,2/1,
{16}7/6b,5,4,3,{8}2/7,1/8,2/8,1/8,1/7,1/6,
5b/3b,4/5,{16}4,5,3,6,4,6,3,7,5,4,{8}6/3,
3b/6b,{24}7,6,5,{8}4/3,1/8,6/5,1/2,8/1,7/8,
{16}4/3,2,{8}1,{16}5/4,6,{8}7,1/8,1/2,1/8,7/8,
{16}3b/2,4,5,6,{8}7/2,8/1,7/1,8/1,8/2,8/3,
1/7,2/1,{16}8/7,1,6,8,7,2,8,3,8,2,7,1,
{8}8b/3b,{24}6,7,8,{8}1/2,4/5,7/8,4/3,5/4,6/5,
{16}1/2,3,{8}4,{16}8/1,7,{8}6,4/5,4/3,4/5,6/5,
{16}3/2b,1,8,7,{8}6/3,5/4,6/4,5/4,5/3,5/2,
1b/7b,8/1,{16}8,1,7,2,8,2,7,3,1,8,{8}2/7,
7/2,5-1[16:1],{16}7,6,{8}5,8x,3-7[16:1],{16}5,4,{8}3,
8x,5-8[16:1],{16}3,4,{8}5,7x,4-8[16:1],{16}2,3,{8}4,
7x,6-2[16:1],{16}4,5,{8}6,1x,4-8[16:1],{16}6,5,{8}4,
{16}7bx,6,{8}5h[8:1],{16}3,4,{8}3h[8:1],{16}6b,5,{8}6h[8:1],{16}2,1,{8}2h[8:1],
,4-8[16:1],{16}2,3,{8}4,1x,6-2[16:1],{16}4,5,{8}6,
1x,4-1[16:1],{16}6,5,{8}4,2x,5-1[16:1],{16}7,6,{8}5,
2x,3-7[16:1],{16}5,4,{8}3,8x,5-1[16:1],{16}3,4,{8}5,
{16}2bx,3,{8}4h[8:1],{16}6,5,{8}6h[8:1],{16}3b,4,{8}3h[8:1],{16}7,8,{8}7h[8:1],
{16}6,5,{8}4v1[16:1],{16}2,3,{8}4v7[16:1],{16}6,5,{8}4v1[16:1],{16}2,3,{8}4v7[16:1],
{16}6,5,{8}4v1[16:1],{16}2,3,{8}4v7[16:1],{16}6,5,{8}4v1[16:1],{16}2,3,{8}4v7[16:1],
{16}6,5,{8}4v1[16:1],{16}2,3,{8}4v7[16:1],{16}6,5,{8}4v1[16:1],{16}2,3,{8}4v7[16:1],
{16}6,5,{8}4v1[16:1],{16}2,3,{8}4v7[16:1],{16}6,5,{8}4v1[16:1],{16}2,3,{8}4,
8x/7x,4/5,6/3,6/3,7/2,2/7,1/8,8/1,
7/3,2/6,5/1,2/6,3/7,4/8,6/5,4/3,
5/6,4/7,3/1,5/6,4/3,8/7,4/3,6/5,
8/1,3/4,4/5,5/6,5/4,3/4,1/2,8/1,
{24}{12}6/5,7/8,7/8,7/8,6/5,5/6,5/6,4/3,3/4,3/4,2/1,2/1,
1/2,4/6,4/6,4/6,3/5,3/5,3/5,2/8,8/2,8/2,7/3,2/7,
{24}1x,8x,1x,8x,1x,8x,1x,8x,1x,8x,1x,8x,1x,8x,1x,8x,1x,8x,1x,8x,1x,8x,1x,8x,
1,8,1,8,1,8,1,8,1,8,1,8,1,8,1,8,1,8,{4}1b,
{8}8b/4-2[16:1],3,4/7-5[16:1],8,7/1-4[16:1],2,1/6-1[16:1],5,
6/2-5[16:1],3,2/7-4[16:1],8,7-3[16:1],8,{4}7,
{8}6/5,4/5,3/4,6-1[16:1],5,6/3-5[16:1],7-4[16:1],3-1[16:1],
7-2[16:1],3-6[16:1],7>2[16:1],3<6[16:1],{4},{8}2/1,4/5,
5b/1-3[16:1],2,1/6-8[16:1],5,6/4-1[16:1],3,4/7-4[16:1],8,
7/3-8[16:1],2,3/6-1[16:1],5,6-2[16:1],5,{4}6,
{8}7/8,1/8,2/1,7-4[16:1],8,7/2-8[16:1],6-1[16:1],2-4[16:1],
6-3[16:1],2-7[16:1],6>3[16:1],2<7[16:1],{4},{8}3/4,1/8,
5b/4>1[16:1],2,4/5<8[16:1],7,5b/2v5[16:1],4,2/7v1[16:1],1,
7b/3<6[16:1],4,3/8-4[16:1],2,8b/1-3[16:1],3,1/7,5/6,
7b-3b[8:1]/8b-4b[8:1],4/3,{4}8/7,{8}7b/5v2[16:1],4,5,7,
5/6,1>3[16:1],5-8[16:1],1-4[16:1],5<7[16:1],1-5[16:1],5,1,
{16}7b<4[16:1],8,{8}1,1,3,{16}3b>8[16:1],4,{8}5,5,7,
{16}7b-2[16:1],6,{8}5,5,6,{16}5b-1[8:1],4,{8}3,5,6,
3-8[16:1]/4-7[16:1],7/8,{4}3/4,{16}5V71[16:1],4,{8}3,3,5/4,
3b/4b,5/6,{24}4,6,4,6,{12},{8}6/2,5/1,4/8,{32}8/4,5/1,6/2,7/3,
{8}4b/8b,B2,B4,B7,B2,B4,B8,B1,
B5,B3,B7,B1,B5,B3,B7,B4,
{1}C,
