&title=ヤツメ穴
&artist=ころんば
&first=-0.003
&des=Amatou_Kurage
&lv_5=13
&inote_5=(130){4},,,,
{16}3-1[8:1]/7,,,7,,,5,,3-8[8:1]/6,,,6,,,4,,3-1[8:1]/5,,,5,,,6,,6/2<7[8:1],,,,B5/B6,,,,
{16}6-8[8:1]/2,,,2,,,4,,6-1[8:1]/3,,,3,,,5,,6-2[8:1]/4,,,4,,,3,,3/6>3[8:1],,,,B1/B2,,,,
{16}3>1[8:1]/7,,,7,,,5,,3-8[8:1]/6,,,6,,,4,,3>1[8:1]/5,,,5,,,6,,6/2-7[8:1],,,,B5/B6,,,,
{16}6<8[8:1]/2,,,2,,,4,,6-1[8:1]/3,,,3,,,5,,6<8[8:1]/4,,,4,,,3,,3/7-2[8:1],,,,,,,,
4qq5[8:3]/5,,,,7,,7,,8V64[8:2],,,,3,,2,,1<6[8:1],,,,1s5[8:2],,,,6h[8:2],,,,,,37,,3/7-3[8:1],,,,1-4[8:1],,1,,7-3[8:1],,,,8v5[8:1],,8,,7V53[8:2],,,,2,,2,,1-5[8:1],,,,18,,,,
3h[8:2]/7h[8:2],,,,,,5,,4-2[8:1]/6,,4,,8-4[8:1],,8,,3<6[8:1],,,,7>2[8:1],,,,4,,4,,35,,4,,2h[8:2]/6h[8:2],,,,,,8,,1-5[8:1],,7-4[8:1],,1,,7,,2h[8:1],,{24}1,8,7,{16}6-2[8:1],,34,,1,,,,47,,47,,
6h[8:2]/5,,8,,5h[8:2],,8,,4h[8:2],,1,,3h[8:2],,1,,7-1[8:1],,8,,2-4[8:1],,3,,5-7[8:1],,6,,8,,1,,2h[8:2]/6,,1,,4h[8:2],,1,,5h[8:2],,8,,7h[8:2],,8,,2-5[8:1],,6-1[8:1],,2,,6,,C,,,,38,,38,,
2h[8:2]/1,,4,,1h[8:2],,4,,8h[8:2],,5,,7h[8:2],,5,,3-5[8:1],,4,,6-8[8:1],,7,,1-5[8:1],,2,,3h[8:2]/1,,,,7<4[8:1],,8,,1,,2,,3>8[8:1],,4,,5,,6,,7h[8:1],,1,8,2>8[8:2],,4,,4,,,,C,,,,
2V46[8:2],,2,,6V82[8:2],,6,,2,,,,4-8[8:1],,5,,3-1[8:1],,2,,5-7[8:1],,6,,8q1[8:2],,1,,2,,3h[8:2],,,,2,,14,,85,,6/7h[8:1],,4,5,3h[8:1],,2h[8:1],,1b,,2b/8b,,1bw5[8:1],,7b/3b,,1b`Cf,,,,3/7<1[8:2],,28,,
1,,,,5-2[8:1],,46,,7-4[8:1]/5,,8,,17,,2,,3h[8:1]/5,,6,2,4-8[8:1],,3,,54,,,,1-6[8:1]/7,,8,,1-5[8:1]/2,,,3,1,,4,,4/6V84[8:2],,7,5,6,,2,,2h[8:5],,E4,,E2,,C,,E8,,E6,,6-1[8:1]/4,,5,,46,,,2,2v5[8:1]/8,,5>1[8:1],,2,,8,,8-4[8:1],,7,,6/8-3[8:1],,,5,8>2[8:1],,4,,48,,,,5-2[8:1]/3,,4,,5-1[8:1]/6,,,7,5,,8,,8/2V48[8:2],,3,1,2,,6,,6h[8:5],,E8,,E6,,C,,E4,,E2,,Ch[8:2]f,,,,
E3/E7,,,,,,,,,,45,,{24}3,4,2,{16}4,,1/5pp4[8:3],,,,B2/B3,,,,1,,3,3,6,5,7,,48,,13,,4qq5[8:3]/8,,,,B7/B6,,,,,,6,6,4,,{24}6,5,7,{16}5,,81,,3,4,2,4,3,,45,,3qq8[8:3]/7,,,,B5/B6,,,,7,,,6,6,,45,,{24}2,4,3,{16}4,,B3/B4/6<1[8:1],,,,2,,2>5[8:1],,1,,{24}1,8,7,{16}6pp1[8:3],,,,B3/B4,,,,2,,,,{16}34,,2,,{24}7,5,6,{16}5,,81,,2,,3/4h[16:3],,,5h[16:3],,,,,
6V47[8:2]/3,,,,3,,2,,1pp1[8:2]b,,,,8,,7,,6-4[8:1],,6,,2-6[8:1],,2,,8h[8:2],,,,1p8[8:3]b,,2,,3<6[8:1],,,,3,,,,7-5[8:1]/1,,6,,2-8[8:1]b,,1,,4p3[8:2]b,,,,3>5[8:2],,,,C,,,,4-8[8:1]b,,,,
3-6[8:1]b/4,,,,7h[8:2],,,,2-5[8:1],,8-4[8:1],,2,,8,,1<6[8:1]b,,,,1>4[8:1]/2,,,,81,,7,,65,,4,,2-7[8:13]/3h[4:4],,,,,,,,,,,,,,,,,,,,,,,,6-3[8:1]b,,,,6,,,,
2/4h[8:1],,1,,3h[8:1]/5,,8,,6h[8:1]/4,,1,,5h[8:1]/7,,8,,3-8[8:1],,2,,6-4[8:1],,7,,1-5[8:1],,2,,15,,,,
7/3h[8:1],,5,,6h[8:1]/4,,1,,3h[8:1]/5,,8,,6h[8:1]/2,,4,,3>8[8:1],,7<4[8:1],,3,,7,,C,,,,51,,51,,
6/8h[8:1],,5,,7h[8:1]/1,,4,,2h[8:1]/8,,5,,1h[8:1]/3,,4,,6-8[8:1]b/5,,7,,4-2[8:1]b,,3,,1-5[8:1]b,,,,18,,7,,6>4[8:1]/4,,,,2q6[8:1],,2,,8V64[8:2],,8,,3,,2,,1h[8:1],,7,8,6>8[8:2],,4,,4,,,,C,,,,
7V53[8:2],,7,,3V17[8:2]b,,3,,7,,,,5-1[8:1],,4,,6-8[8:1]b,,7,,4-2[8:1],,3,,1p8[8:2]b,,8,,7,,6h[8:2],,,,7,,85,,14,,3/2h[8:1],,5,4,7h[8:1],,3,,6b/2b,,5b/1b,,6b-3[8:1]/2b-7[8:1]b,,4b/8b,,6b/2b`Cf,,,,6/2>8[8:2]b,,71,,
8,,,,4-7[8:1]b,,53,,2-5[8:1]b/4,,1,,82,,7,,6h[8:1]/4,,3,7,5-1[8:1]b,,6,,45,,,,8-3[8:1]b/2,,1,,8-4[8:1]b/7,,,6,8,,5,,5/3V15[8:2]b,,2,4,3,,7,,7h[8:5],,E6,,E8,,C,,E2,,E4,,3-8[8:1]b/5,,4,,53,,,7,7v4[8:1]b/1,,4<8[8:1]b,,7,,1,,1-5[8:1]b,,2,,3/1-6[8:1]b,,,4,1<7[8:1]b,,5,,51,,,,4-7[8:1]b/6,,5,,4-8[8:1]b/3,,,2,4,,1,,1/7V51[8:2]b,,6,8,7,,3,,3h[8:5],,E2,,E4,,C,,E6,,E8,,3/7<6[24:1]>5[24:1]>4[24:1]>3[24:1]>2[24:1]<1[24:1]b,,28,,
1,,,,5v2[8:1]b,,46,,7v4[8:1]b/5,,8,,17,,2,,3h[8:1]/5,,6,2,4q8[8:1]b,,3,,54,,,,1v6[8:1]b/7,,8,,1q5[8:1]b/2,,,3,1,,4,,4/6-8[32:3]p4[32:5]b,,7,5,6,,2,,2h[8:5],,E4,,E2,,C,,E8,,E6,,6v1[8:1]b/4,,5,,46,,,2,2v5[8:1]b/8,,5>4[32:1]>3[32:1]>2[32:1]<1[32:1]b,,2,,8,,8p4[8:1]b,,7,,6/8v3[8:1]b,,,5,8>1[16:1]>2[16:1]b,,4,,48,,,,5v2[8:1]b/3,,4,,5q1[8:1]b/6,,,7,5,,8,,8/2-4[32:3]p8[32:5]b,,3,1,2,,6,,6h[8:5],,E8,,E6,,C,,E4,,E2,,Ch[8:2]f,,,,E3/E7,
