&title=[NWAD]
&artist=Knighthood
&first=0
&des=albertoBradish
&lv_5=14
&des_5=albertoBradish
&inote_5=
(210){4},,,,,,,,{1}5h[1:2],
,4h[1:2],
,6h[1:2],
B7/B6/E7,
3h[1:2],
B2/B3/E3,
{4}6,6/4,6/4,{8}6/4,5,
{4}6x/4x,6/4,{8}4/6,5,4/3,2,
{4}3x/4x,3/5,3/5,{8}3/5,4,
{4}3x/5x,3/5,{8}3/5,6,3/5,2,
1xh[2:1],8,7,6,5xh[8:3],8,1,2,
3xh[8:3],4,5,6,7xh[8:3],1,2,3,
{16}7x,5,7,5,7x,5,7,5,7x,6,5,4,{24}3x,2x,1x,8x,7x,6x,
{4}5h[4:3]/1h[4:3],,,B5`B1,
7-4[8:1],2-5[8:1],8-5[8:1],1-4[8:1],
7-4[8:1],8x-3[8:1],1x-6[8:1],{8}2,3,
{4}4x-2[8:1],5-7[8:1],4-8[8:1],5-1[8:1],
4x,{8}5xh[4:1],{16}E6,E7,{8}E8,4xh[4:1],{16}E4,E3,{8}E2,
{4}8-6[8:1],8x-4[8:1],2-8[8:1],2x-4[8:1],
5-1[8:1],5x-7[8:1],8-4[8:1],{8}5x,6x,
{4}7x-3[8:1],7,1-5[8:1],1x/7-4[8:1],
{8}3/7x,3,3,3,6/4,6,6,6,
7-4[8:1],5,{4}7,{8}1,2,3,4,
2-5[8:1],4,{4}2,{8}8,7,6,5,
{4}4h[8:1],4h[8:1]/5h[8:1],3h[8:1]/6h[8:1],3h[8:1]/6h[8:1],
4h[8:1]/5h[8:1],{8}4/5,{16}4,5,{8}4,5/4,{4}4h[8:1]/5h[8:1],
{8}2x-5[8:1],4,{4}2,{8}8,7,6,5,
7x-4[8:1],5,{4}7,{8}1,2,3,4,
{16}5,6,7,8,1,2,3,4,E6,E7,E8,E1,E2,E3,E4,E5,
{32}D6,A6,D7,A7,D8,A8,D1,A1,D2,A2,D3,A3,D4,A4,D5,A5,E6,E7,E8,E1,E2,E3,E4,E5,E6,E7,E8,E1,,,,,{16}2bx,
3,4,5,6,7,8,1,5x,6,7,8,1,2,3,4,
{8}5-7[8:1],5,2-6[8:1],2,8-3[8:1],8,{4}8x,
{16}6bx,5,4,3,2,1,8,7,4x,3,2,1,8,7,6,5,
{8}4-1[8:1]*-7[8:1],4,{4}4x,{8}8<5[8:1]*>3[8:1],8,{4}8x,
{16}7b,8,1,2,3,4,5,6,2,3,4,5,6,7,8,1,
{8}2-4[8:1],2,7-3[8:1],7,5-1[8:1],5,{4}1x,
{16}5bx,6,7,8,1,2,3,4,8x,1,2,3,4,5,6,7,
{8}8-3[8:1]*-5[8:1],8,{4}8,{8}4<7[8:1]*>1[8:1],4,{4}4,
Ch[4:1],{16}E7,E8,E1,E2,{4}E3f,{8}5bx/1bxh[8:1],5bx,
{4}5bx/8bxh[8:1],5/2h[8:1],{8}5/1,2/6,3-6[8:1]/7-2[8:1],3/7,
{4}Cf,4/8h[8:1],4/6h[8:1],{8}4/8,7/3,
7-4[8:1],5,7,2-5[8:1],8,2,8x-4[8:1],8x,
{16}8x/4bx,3,2,1,8,7,6,5,8x,7,6,5,4,3,2,1,
4bx,3,2,1,8,7,6,5,8x,7,6,5,4,3,2,1,
{1}4b/8bxh[4:3],
{8}6/5,8/4,,3/4,{4}5/1-5[8:1],1w5[8:1],
{1}Cf,
,,,4p2<4[4:7],
,8p6>8[4:7],
,4h[1:2],
{64}B8,B7,{4},,,{16},,,{32},{1}5h[1:2],
{4},,{64}B1,B2,{4},{16},,,{32},{1}4h[1:2],
{64}B8,B7,{4},,,{16},,,{32},{1}5w1[2:3],
{8},,,,,,,,4,
4,{4}4,5/7,{8}8,8,
{4}8,{16}1/3,,,2/4,{48},,,,,,{24}E5,B5,B6,{4}B7,
{8}8x,8,{4}8,1/3,{8}4,4,
{16}4/5,,,5/6,,,{8}4/5,3,4-7[8:1],{16},4xh[16:3],,,,,,,{8}2>4[8:1],
2,7<5[8:1],7,{4}1>4[4:1],
4x<7[4:1],7p2[4:1],{8}2,1x,8x,7x,
{4}6<2[4:1],{8}2,3,4-2[8:1],4,5-7[8:1],5,
{16}1x,2,3,4,1x,8,7,6,4x,3,2,1,5,4,3,2,
{4}4x/1x-7-5-3[4:3],2x,2x,{8}2,2,
{4}1-5[4:1],5-2[4:1],{8}8,{16}8,7,{4}6,
5x-2[4:1],2-7[4:1],7-4[4:1],{8}4,3,
{16}2<7[16:3],,,4x,,,{8}5,{16}6>3[16:3],,,8x,,,{8}1,
{4}2xh[4:1],{8}4,2,5,3,{4}4/6-8[8:1],
{2}6-3[8:1],{8}8,1,2,3,
{4}4/7xh[4:1],{8}5,7,4,6,5/3,{16}3,4,
3,5,3,5,2,6,2,6,1,7,1,7,{8}8x-4[8:1],8x,
{4}Cf/8bxpp6[2:1],{8},,,,4,3,
{4}2>5[8:1],2,{24},,,E5,B4,B3,{8}B2,7,
{4}1xqq3[2:1],{8},,,,5,6,
{4}7<4[8:1],7,{8}3/5,{24}E6,B6,B7,{8}B8,2,
{4}1x-7-3[2:1],6,6,{8}5,6,
{4}7-4[8:1],7,{8}3,{24}E5,B5,B6,{8}B7,2,
{4}8xp6[2:1],2,2,{8}4,3,
{4}2-5[8:1],2,{16}6/4,,,7/3,,,{8}8/2,
{4}1,1,1,{8}1-6[8:1],2,
{4}1/4,8,8,{8}8-3[8:1],7,
{4}8/5h[8:1],8/5h[8:1],4/3h[8:1],1/3h[8:1],
5/6h[8:1],8/6h[8:1],5/4h[8:1],2/4h[8:1],
{8}4/5,4/6,4/7,4/8,5/4,5/3,5/2,5/1,
{16}2,1,2,1,3,8,3,8,2,3,4,5,1,2,3,4,
{1}1/5s1[2:1],
{16}7,8,7,8,7,8,7,8,6,5,4,3,2,1,8,7,
{4}6/8b-3[8:1],5/8-5[8:1],4/8V24[16:3],{8}6x/8<5[8:1],7x,
{4}8x-3[8:1]*-4[8:1],8x,{8}1/6,{24}7,8,7,{8}8,6,
{4}1/8-4[8:1],2-6[8:1]/8-6[8:1],2-4[8:1]/8-4[8:1],2-8[8:1],
{16}5/2-5[8:1],,,6,{8}2-7[8:1],7,{4}2-6[8:1],2x/8xw4[8:1],
8bx,{8}6/8,7,3/1,2,{4}1/3-5[8:1],
{8}3-7[8:1],3x,3x<6[8:1],3x,3x-8[8:1],3x,{4}3x,
6b/1bx,{8}3/1,2,6/8,7<4[8:1],{16},,7/4,3,
2,1,8,7,3,2,1,8,4,3,2,1,8,7,6,5,
{8}7x-4[8:1]/4-1[8:1],7x/4,{4}7x/4,{8}6x/1x-5[8:1],1,6-8[8:1],6,
2>5[8:1],2,6<1[8:1],6,2,{24}2,3,4,{8}5-2[8:1],1,
5/8x-4[8:1],8,{4}8>3[8:1],3/8x<5[8:1],{8}5/8x,4,
3>8[8:1],{16}4,4,,,{8}5,6<1[8:1],{16}5,5,,,{8}4,
3b,3/4,1/2,1/2,6/5,6/5,8/7,7/8,
8b/6,8/6,8/4,8/4,8/2x,8/3x,8/4x,8/5x,
{16}7b,8,7,8,6,5,6,5,7b,4,7,4,8,3,1,2,
{32}8/3x,7,6,5,4,3,2,1,8,7,6,5,4,3,2,1,3/8x,4,5,6,7,8,1,2,3,4,5,6,7,8,1,2,
{1}3/7x,
{8}6b/8b,7b,3b/1b,2b,8b/1b,{24}1b/8b,2b/7b,3b/6b,{4}4b/5b,
{8}5/7,{16}3,4,{8}1/5,{16}6,5,{8}7/4,{16}2,1,,7,{8}8,
1h[16:1]/2h[16:1],8h[16:1]/3h[16:1],7h[16:1]/4h[16:1],6h[16:1]/5h[16:1],4bxh[16:1]/3bxh[16:1],5bxh[16:1]/2bxh[16:1],6bxh[16:1]/1bxh[16:1],7bxh[16:1]/8bxh[16:1],
{4}6b/1b,{8}7-4[8:1],8,7/1-5[8:1],8,1,4,
{16}7,7,7,7,7,7,{8}7,8/6,1/5,2/4,{16}3,4,
{4}2b>5[8:1]/5b<8[8:1],2/5,{8}7-4[8:1],8,1-5[8:1],8,
{16}7,8x,1x,2x,3x,4x,5x,6x,2,1x,8x,7x,6x,5x,4x,3x,
{4}2/5,{16}7b,8b,7b,8b,{8}7b,5b/6b,4b/3b,1b/2b,
{4}7b/8b-3b[8:1],6/8-5b[8:1],2/8>4b[8:1],6/8,
{8}8/5-2[8:1],7,{4}5/6,{8}1/4-7[8:1],2,4/3,2,
1,{16}2,8,{8}2,{16}4/3,5/2,{8}6/1,{16}8,7,8,7,8,7,
{8}8b-4[8:1],7,{4}8/6-1[8:1],{8}6/2-5[8:1],3,{4}2,
{8}8b/4b,7/3,6/2,5/1,8b/4b,1/5,2/6,{16}3/7,8/4,
1,5,1,5,1,5,1,5,7,3,7,3,7,3,7,3,
{32}7,6,5,4,3bx,2,1,8,7,6,5,4,3bx,2,1,8,3/7bx,4,5,6,7,8,1,2,3bx,4,5,6,7,8,1,2,
{1}3b/7b`Cf,
,2h[8:17],
{8},,,,,,,,,7,
{4}8>4[8:3],{8}5,6,7,8,
,2,{4}1<5[8:3],{8}4,3,2,1,
,8z4[8:13],{4}8,{8}A7,D7,A6,D6,
,8,{4}8,{8}A1,D2,A2,D3,
E
