&title=天泣
&artist=稻葉曇
&first=-0.01
&des=はくこう
&lv_5=12
&inote_5=(232)
{1},,
{8}6h[4:1]/4,,3,3,5h[4:1],,2,,
{8}5h[4:1],,3,3,6h[4:1],,4,,
{8}7h[4:1]/5,,3,3,6h[4:1],,2,,
{8}6h[4:1],,3,3,7h[4:1],,5,,
{8}4-2[48:5]/6,,,,5-1[8:1],,,,
{8}48,,7,7,5,,8,,
{8}5/3-1[48:5],,,,4-8[8:1],,,,
{8}37,,6,6,5,5,4,4,
{8}3h[4:1]/5,,6,6,4h[4:1],,7,,
{8}4h[4:1],,6,6,3h[4:1],,5,,
{8}2h[4:1]/4,,6,6,3h[4:1],,7,,
{8}3h[4:1],,6,6,2h[4:1],,4,,
{8}5-7[48:5]/3,,,,4-8[8:1],,,,
{8}51,,2,2,4,,1,,
{8}3h[8:1]/4h[8:1],,3h[8:1]/5h[8:1],,3h[8:1]/6h[8:1],,3h[8:1]/7h[8:1],,
{8}4,4,5,5,6,6,7,7,
{8}1b>6[16:15],,6,,,,7,,,,8-4[48:7],8,1,,1,,
{8}2>6[16:13],,6,,,,7,,,,8-4[48:7],8,2,,2,,
{8}3<6[16:11],,6,,,,7,,,,8-4[48:7],8,3,,3,,
{8}5h[4:1]/4,,2,,3h[4:1]/5,,7,,6h[4:1]/4,,1,,2h[4:1]/5,,8,,
{8}8b<3[16:15],,3,,,,2,,,,1-5[48:7],1,8,,8,,
{8}7<3[16:13],,3,,,,2,,,,1-5[48:7],1,7,,7,,
{8}6>3[16:11],,3,,,,2,,,,1-5[48:7],1,6,,6,,
{8}54,,3,4,2,5,1h[4:1],,7,,3^6[16:5]/5,,,,,,
{8}7,5,7,5,7h[4:1],,1,1,
{8}4h[4:1],,3h[4:1],,6h[4:1],,5h[4:1],,
{8}8h[1:1],,,,,,,,2h[2:1],,,,
{32}1b,8b,7b,,,,,,,,,,,,,,
{8}2-4[48:5]/6,,5,5,1-5[8:1],,7,,
{8}8-6[48:5],,4,4,1-5[8:1],,2,,
{8}1-3[48:5]/4,,5,5,8-4[8:1],,6,,
{8}7-5[48:5],,4,4,8-4[8:1],,3,,
{8}2h[4:1],,8h[4:1],,4h[4:1],,6,6,
{8}2h[4:1],,5,5,1h[4:1],,7h[4:1],,
{8}8-4[8:1],,6^4[48:5],,2^8[48:5],,7,,
{8}65,,13,,76,,24,,
{8}7-5[48:5]/3,,4,4,8-4[8:1],,2,,
{8}1-3[48:5],,5,5,8-4[8:1],,7,,
{8}8-6[48:5]/5,,4,4,1-5[8:1],,3,,
{8}2-4[48:5],,5,5,1-5[8:1],,6,,
{8}7-3[8:1]/3,,1,,2^5[8:1]/4,,6,,
{8}7-3[8:1]/3,,1,,2^5[8:1]/4,,6,,
{8}7h[8:1]/8h[8:1],,7h[8:1]/1h[8:1],,7h[8:1]/2h[8:1],,7h[8:1]/3h[8:1],,
{8}8,8,1,1,2,2,3,3,
{8}5b^8[8:3]*qq3[8:3],,,,,,,,
{8}2,,4/5,,1/6,,4/7h[4:1],,
{8}2,,4/7,,1/6,,4/7h[4:1],,
{8}2,,4/7-5[48:5],7,1,,4,,
{8}26,,4/7h[4:1],,1,,46,,
{8}2,,4/7-5[48:5],7,1,,4,,
{8}6h[8:1]/5h[8:1],,6h[8:1]/4h[8:1],,6h[8:1]/3h[8:1],,6h[8:1]/2h[8:1],,
{8}5,5,4,4,3,3,2,2,
{8}8b,,53,,7,,53,,
{8}8,,5/4,,7/3,,5/2h[4:1],,
{8}8,,5/2,,73,,5/2h[4:1],,
{8}8,,5/1-3[48:5],1,7,,5/2,,
{8}8,,53,,7,,53,,
{8}8,,5/1-3[48:5],1,7,,5/2,,
{8}3h[8:1]/4h[8:1],,3h[8:1]/5h[8:1],,3h[8:1]/6h[8:1],,3h[8:1]/7h[8:1],,
{8}4,4,5,5,6,6,7,7,
{8}1b^4[4:14],,,,,,,,
{1},,,
{8}5^8[4:14],,,,,,,,
{1},,,
{8}1b^4[16:25]/8,,6,,5-8[8:1],,,,
{8}7,,8-4[8:1],8,,,5,,
{8}5^8[16:25],,2,,1-4[8:1],,,,
{8}3,,4-8[8:1],4,,,1,,
{8}1^4[16:25],,6,,5-8[8:1],,,,
{8}7,,8-4[8:1],8,,,5,,
{8}5h[8:1],,2h[8:1]/6h[8:1],,5h[8:1],,6h[8:1]/1h[8:1],,
{8}1,1,3,3,5,5,7-3[16:25],7,
{8},,5,,,,5,,
{8},,5,,,,{32}5b,6,7h[32:6],,,,,,
{32}1b,2,3h[32:6],,,,,,{8}8,8,4-8[8:1],,6,,
{8}7-5[48:5],,1,1,4-8[8:1],,3,,
{8}2h[4:1],,8h[4:1],,4h[4:1],,6-1[8:1],6,
{8}4,,5-2[8:1],5,7,,8h[4:1],,
{8}1-5[8:1],,6^3[8:1],,2^7[8:1],,4,,
{8}65,,13,,76,,24,,
{8}7b^5[48:5]/8,,1,1,4-8[8:1],,2,2,
{8}3^1[48:5],,5,5,8-4[8:1],,6,6,
{8}7^2[8:1],,3,3,1-5[8:1],,4,4,
{8}3^6[8:1],,7,7,5,5,6
,4,
{8}7-3[8:1]/3,,1,,2^5[8:1]/4,,6,6,
{8}7-3[8:1]/3,,1,,5w1[12:1],,,,
{8}2h[8:1]/1h[8:1],,2h[8:1]/8h[8:1],,2h[8:1]/7h[8:1],,2h[8:1]/6h[8:1],,
{8}1,1,8,8,7,7,6,6,
{8}4b/5b,,3,3,7h[4:1],,5,,
{8}6h[4:1]/4,,2,4,1,5,3,,
{8}4h[4:1]/7,,6,6,2h[4:1],,4,,
{8}3h[4:1]/5,,7,5,8,4,6,,
{8}5h[4:1]/2,,3,3,7h[4:1],,5,,
{8}6h[4:1]/4,,2,4,1,5,3,,
{8}6h[8:1]/5h[8:1],,6h[8:1]/4h[8:1],,6h[8:1]/3h[8:1],,6h[8:1]/2h[8:1],,
{8}5,5,4,4,3,3,2,2,
{8}1b/8b,,6,6,1h[4:1],,4,,
{8}2h[4:1]/6,,8,5,6,2,4,,
{8}6h[4:1]/1,,3,3,8h[4:1],,5,,
{8}7h[4:1]/3,,1,4,3,7,5,,
{8}3h[4:1]/8,,6,6,1h[4:1],,4,,
{8}2h[4:1]/6,,8,5,6,2,4,,
{8}3h[8:1]/4h[8:1],,3h[8:1]/5h[8:1],,3h[8:1]/6h[8:1],,3h[8:1]/7h[8:1],,
{8}4bp8[58#16:17]/8b<1[58#16:31],,,,,,,,
{1},,,,,,
{8}8z4[116#32:20],,,,,,,,
{8},,,,,,,,
{8}2h[2:3],,,,,,,,
{8},,,,4,,3,,
{8}3h[2:3],,,,,,,,
{8},,,,5,,4,,
{8}4h[2:3],,,,,,,,
{8},,,,6,,5,,
{8}5h[2:3],,,,,,,,
{8},,,,6^3[116#8:7],,3^6[116#8:6],,
E
