&title=花に夕景
&artist=三月のパンタシア
&first=0
&des=noka
&des_5=
&lv_5=13+
&inote_5=(200){4},,,,,,,,{8}E7,
E5,E6,E4,{2},{8}E3,
E5,E4,E6,{2},{8}E8,
E6,E7,E5,{2},{8}E2,
E4,E3,E5,{2},{8}E8,
E7,E6,E5,{2},{8}E3,
E4,E5,E6,{2},{8}E7,
E6,E5,E4,{2},{8}E2,
E3,E4,5x-1[8:55],{2},{8}E7,
E5,E6,E4,{2},{8}E3,
E5,E4,B6,{2},{8}D7,
D5,D6,D4,{2},{8}D3,
D5,D4,D6,{2},{8}D8,
D7,D6,D5,{2},{8}D3,
D4,D5,D6,{4},5x,
8x,7,6,5,
8,7,6,5/4,
6,7/5,{8}3,4,{4}2,
{16}6,{8},{16}6x,{8}5x,7xp3[4:1]*<3[4:1],{2},{4}1bx,
3/4,{8}3,4,{4}6/5,
8,4/3,{8}2,1,{4}3,
8,6/5,{8}6,5,{4}3/4,
1,5/6,{8}7,8,6,{16}1x,4x,
{4}3x,3/4,{8}3,4,{4}6/5,
8,4/3,{8}2,1,{4}3,
{8}6,4,5,3,{4}3/4,{8}2,4,
3,5,{4}4/5,{8}7,{16}3x,5x,{8}4x,6x,
{4}8bx/1bx,4x/3xh[8:3],{8},6,{4}4/5,
1,5/6h[8:3],{8},5,{4}4/7,
7,{8}4,5x/3x,,3x/6x,,7,
{4}5/6,{8}2,3/4,{4},8/1,
4xqq5[2:1],{8}6,6,,7,{4}7,
6xpp5[2:1],{8}3,3,,2,{4}2,
1,{8}4,4/3h[4:1],,1,,3,
{4}4/5,{8}6,4/5,,3,{4}1/2,
2bx>5[16:3],{8}8,8h[8:3],{4},{8}6,7,
{4}5bx>2[16:3],7,5bx<8[16:3],{8}1,1h[4:1],
,7h[4:1],,5h[4:1],,6,,7,
5x,6x,2,4xh[4:1],,3,{4}3/4,
1b-4[8:3],{8}6,6,,7,{4}7,
8-5[8:3],{8}2,2,,1,{4}1bx,
{8}3,3x,,4,{4}4x,{8}2x,3,
4,5,6,7,{4}1x/8x,{8}3x,6x,
{4}7x-4[8:1]/4x-8[8:1],7bx/Cf/4bxqq5[2:1],,,,8x/7x,
{8}2,5,{4}4,
5/6h[4:1],{16}E5,E6,E7,E8,E1,E2,E3,E4,{8}E5,6x,
{4}6x,{8}3x,3x,{4}4x/3x,{8}4x,3x,
{4}2x-5[8:1]/5x-1[8:1],2bx/5bx/Cf,{8},8x,4,7,
3x,3x,6x,6x,1x,1x,7x,7x,
3x>6[2:1],{4},{8}E1,{4},E5,
{8}3x,4,5,3x,4,5,2x,3,
4,5,2x,3,4,5,6,7,
{1}1bx>4[8:1]/8bx<5[8:1],
{4}1b/2b-5[8:1],7,8x/6xV47[4:1],4,
2x-5[8:1],7x-3[8:1],1x-5[8:1],8x>7[8:3],
2bxh[2:1],{2},{8}1,2,
{4}3/4,{8}7,5/6,,1-5[8:1]/8-4[8:1],,Cf,
{4},2/1<6b[8:1],4,{8}1x,1x,
{4}6,7/8>3b[8:1],5,{8}8x,8x,
{4}3,2/1,{8}3,8,8,4,
{4}6h[4:1],{8}8x,2xh[4:1],,5,4,3,
{4}1x/2x-5[8:1],7,8x/6xV47[4:1],4,
1x-5[8:1],8x-4[8:1],2x>5[8:1],7x-1-3-5[8:3],
1bxh[2:1],{2},{8}4,3,
{4}2/1,{8}6,8/7,,2,1/8-4b[8:1],8/1,
{4}Cf,{8}1x,1x,,3V52b[4:1],4,3,
,6x,{4}8x-4b[8:1],8bx/2bx-5b[8:1],1bx/2bx,
{8}7,8,6,1>4[8:1],,1x/6x,,8<5[8:1],
,8x/3x,,1-5[8:1],,5xpp4[2:1]/1xpp8b[2:1],{1},{8}2,
5,
3x/4bx,2,7,5x/6bx,4,7,{4}1bx/8bx,
{8}7x,4x,{16}6x,5,6,5,{8}6,4x/7x-2b[8:1],7x/4x,7bx/4bxpp1>2b[8:5],
,,,,,,,{32}E1,B1,C,B5,
{4}E5h[4:3],{2},{4}E1h[2:1],
,{8}7x,6x,5x,4x,3x,2x,
{2}1bx/8bx<5[4:1],1x-5[4:1],
{1}8xpp6[8:5],
{8}3x,4,5,2x,3,4,1x,2,
3,8x,1,2,{12}7x,5,7,4x,6,4,
{8}8x,3,6,5,7x,2,4,3,
{12}6x,5,7,3x,4,2,7x,5,6,3x,4,2,
{4}8xh[4:1],1x,{8}5,3,{4}B1/E1,
2xh[4:1],8x,{8}4,6,{4}B8/E1,
7xh[4:1],8x,{8}6,4,{4}8x/E3/B3,
1xh[4:1],8x,{8}3,5,{4}1x/C,
{8}2xh[8:1]/7xh[8:1],{4},{8}7,8,6,4,5,
{4}2-5[8:1],8,7-3[8:1],1,
2h[4:1],{8}8,6h[8:3],{4},4,
{1}Cf/1bxqq3b[4:11],
,,Ch[1:1],
5xpp6[2:3]*qq4[2:3],
,4x/5xp4[8:5],
{4}1,{8}4/3,4/3,,2,1,3qq8[8:5],
{4},{8}6,6,{4},{8}5xz1b[2:1],5xh[8:7],
{4},,,{8}1,3/7,
,8/1,{4}1/8,{24}D8,D7,{12}D6,,{24}D2,D3,{6}D4,
{1}5xpp5b[2:1]*qq5b[2:1],
{4}1b/6bV48[4:1],4,2x-5[8:1],1/2,
8x-6[8:1],8x-3[8:1],8x-4[8:1],8xpp6[8:3],
1bxh[2:1],{2},{8}1,5,
3/4,2,7,6/5,,7-4-8b[4:1],4,4,
{4}Cf,{8}1x,1x,,6pp4b[16:5],4,6,
,3x,{4}1x>4b[8:1],1bx/6bx<1b[8:1],6bx/5bx,
{16}2x,3x,4x,5x,1x,2x,3x,4x,8x,1x,2x,3x,7x,8x,1x,2x,
6x,7x,8x,1x,5x,6x,7x,8x,4x,5x,6x,7x,{24}3x,4x,5x,6x,7x,8x,
{4}1bx/2bx-5-3[4:1],5x,7x-4-8[4:1],8,
1x-3[8:1]*-4[8:1],1x-6[8:1]*-7[8:1],1x-5[8:1],1xqq3[16:7],
8bxh[2:1],{2},{8}8,4,
6/5,7,2,4/3,,5v8[8:1]/1v4[8:1],,Cf,
{4},7/8v5b[8:1],5,{8}7x,1x,
{4}3,2/1v4b[8:1],4,{8}2x,8x,
{4}6,7/8,{8}5,1,1,8,
{4}3h[4:1],{8}1x,7xh[4:1],,2,4,5,
{4}8x/7x-4-6[4:1],4x,2x-5-1[4:1],1,
8x-6[8:1]*-5[8:1],8x-3[8:1]*-2[8:1],8x-4[8:1],8xpp6[16:7],
1bxh[2:1],{2},{8}1,4,
2/5,3,6,5/4,,7-4-8b[4:1],4,4,
{4}Cf,{8}1x,1x,,6pp4b[16:5],4,6,
,2x,{4}2x-6b[8:1],2bx/8bxw4b[8:1],8bx,
{8}2x,6x,8,8-4[8:1],,8x/7x,,1-5[8:1],
,1x/2x,,8-4[8:1],,4xqq5[2:1]/8xqq1b[2:1],{1},{8}7,
4,
6x/2bx,3,5,7x/3bx,6,4,{4}8bx/1bx,
{8}2x,5x,{16}3x,4,3,4,{8}3,5x/2x-6b[8:1],2x/5x,2bx/5bxpp5qq5b[8:9],
E
