&title=二月の兵隊
&artist=the cabs
&first=3
&des=woxxow
&lv_5=13
&inote_5=(175)
{1},
{16}4,,3,5,3,,6,4,6h[4:1],,,,
{16}5h[4:1],,,,4,,3,,2h[4:1],,,,
{96},1,,,,,{16},,,2,8,2,,7h[4:1],,,,
{12}3,7,7,3,6,6,3,5,5,
{16}1,,2,8,2,,7,1,7h[4:1],,,,
{16}6h[4:1],,,,5h[4:1],,,,8^3[4:1],,,,,,,,
(173){16}5,,6,4,6,,3,5,3h[4:1],,,,
{16}2h[4:1],,,,8,,7,,6h[4:1],,,,
(174.5){96},4,,,,,{16},,,2,4,2,,6h[4:1],,,,
{12}1,1,6,3,4,2,7,5,5,
{16}1,,2,8,2,,7,1,7h[4:1],,,,
{16}3h[16:3],,,5,,,7h[8:1],,6^3[16:3],,,,,,,,
{16}5,,4,6,4,,7,5,7h[4:1],,,,
(175.5){16}2h[4:1],,,,4,,5,,6h[4:1],,,,
{96},7,,,,,{16},,,2,8,2,,3h[4:1],,,,
(177){12}1,4,4,7,8,8,5,3,3,2-7[8:1],,,
(178.5)
{16}2b/6-3[8:15],,,,,,,,,,,,,,,,,,,,
{16},,,,,,,,,,,,,,,,,,,,
||
(174)
{16}4b/5b,,,,26,,,,7,,1,,26,,,,4,5,4,5,
{16}4,,,,26,,,,8,,,,26,,,,4h[4:1],,,,
{16}2,,,,48,,,,5,,7,,48,,,,2,3,2,3,
{16}2,,,,48,,,,6,,,,48,,,,2h[4:1],,,,
(175){16}4,,,,2h[4:1]/1,,,,7,,8,,12,,,,4,5,4,5,
{16}4,,,,1h[4:1]/2,,,,7,,,,12,,,,4h[4:1],,,,
{16}3,,,,8/7h[4:1],,,,5,,6,,78,,,,3,4,3,4,
(176){16}3,,,,7-4[8:1]/8,,,,7b/5^2[16:5],,,,,,,,,,,{96},,,,,
(177)
{16}1,,,8,7,,6-2[8:1],,,{96},,,,,{16},,3,,,,1h[4:1],,4,,6-2[8:1],,,{96},,,,,,,
{16}8,,,1,2,,3-7[8:1],,,,,,6^3[32:5],,,,2^5[32:5],,,,,,,,
{16}1,,,4,3,,2-6[8:1],,,,,,5h[4:1],,,,7-2[8:1],,1,,3,,,,
{16}4,,,5,6,,7^4[16:7],,,,,,1b,,,,,,,,18,,,,
(176){16}2h[8:4]/6,,,,3,,,,5,,6,,7,,7h[8:3],,6,,5,,4,,3,,
(175.5){16}1h[8:3],,4,,4,,5,,6,,5,,7,,7h[8:3],,8,,1,,2,,,,
(176){16}8h[8:2]/4,,,,6h[4:1],,,,4h[4:1],,,,2,,2h[8:3],,3,,4,,5,,6,,
(175.5){16}8h[8:3],,6,,5,,4,,3,,4,,15,,26,,,,48,,2/6^1[8:1],,,,
||
(175){16}2b,,,,4-7[8:1],,5,,3-8[8:1],,1,,6,,,,7^2[8:1],1,7,,
(174){16}3,,,,5-2[8:1],,4,,6-1[8:1],,8,,3,,,,2^5[8:1],1,2,,
(173.5){16}7,,,,1-5[8:1],,8,,3-7[8:1],,2,,7,,,,8^5[8:1],1,8,,
(176){16}2-6[8:1],,,,7,,8,,1-6[8:1],,6-3[8:1],,3-7[8:1],,,,,,,,
(175)
{16}1b,,,,8,,5,6,4-7[8:1],,7^2[8:1],,,,,,4-8[8:1],,4,,
{16}6,,,,5,,8,7,1^6[8:1],,6^3[8:1],,,,,,1-5[8:1],,1,,
{16}7,,,,8,,6,4,5-2[8:1],,2-7[8:1],,,,,,5-1[8:1],,4,,
(177.5){16}2,,,,3,,8,1,8,,37,,1-4[8:1]/5-8[8:1],,15,,,,,,
(177.8){16}1^6[8:7],,,,,,5^2[8:5],,,,,,,,,,,,,,,,,,
(174.5){16}1^6[8:7]/5^2[1:1],,,,,,,,,,,,,,,,,,,,,,,,
(176)8^3[8:7],,,,,,4^7[8:5],,,,,,,,,,,,,,,,,,{96},
(175.5){16}8^3[8:7]/4^7[1:1],,,,,,,,,,,,,,,,,,,,,,,,
||
(176){16}4,,5,,3,,4h[4:1],,,,5,,4-1[8:1],,3,,,,,,
(177.5){16}1,,2,,8,,1h[4:1],,,,2,,1-5[8:1],,8,,,,,,
(175){16}6,,5,,7,,6h[4:1],,,,7,,6-1[8:1],,5,,,,,,
(176){16}2,,1,2,3,,2h[4:1],,,,4,,2-6[8:1],,1,,,,,,
{16}8,,7,,1,,6h[4:1],,,,7,,5-8[8:1],,2,,,,,,
{16}2,,7,6,5,,1h[4:1],,,,3,,1-5[8:1],,7,,,,,,
(174.5){16}8,,4,,34,,5,,6-2[8:1]/7,,,,8-4[8:1],,,,3-8[8:1],,,,
{16}2^5[8:1],,,,1^6[8:1],,,,8^3[8:1],,,,7^4[8:1],,,,(177)1-5[8:1],,,,8,,,,
||
(177.5)
{16}4b/7b,,2-5[8:1],8-5[16:1],1,,28,,,,,,3b/4b,,2,,16,,7,,
{16}85,,3-7[8:1],6-3[16:1],3,,36,,,,,,1b/4b,,2,,38,,,,
{16}12,,3-6[8:1],5-8[16:1],4,,35,,,,,,6b/7b,,5,,24,,5,,
{16}46,,7-3[8:1],8-4[16:1],7,,78,,,,,,2b/5b,,16,,78,,,,
{16}3b/7b,,,,45,,45,,65,,65,,25,,25,,8-5[8:1]/5-8[8:1],,85,,
{16},,,,14,,14,,74,,74,,24,,24,,4^7[8:1]/6^3[8:1],,46,,
{16},,,,18,,18,,12,,12,,16,,16,,1-4[8:1]/4-1[8:1],,14,,
{16},,,,85,,85,,83,,83,,84,,17,,26,,,{48},,
(177)
{16}7h[8:2]/3,,,,6,,8,,4,,3,,2,,2h[8:3],,3,,4,,5,,6,,
{16}8h[8:2],,6,,5,,1,,3,,4,,2,,2h[8:3],,1,,8,,7,,,,
{16}1h[8:2]/5,,,,3,,2,,5,,6,,7,,7h[8:3],,6,,5,,4,,3,,
(177){16}1h[8:2],,3,,4,,8,,6,,5,,74,,74,,,,21,,8/3-8[8:1],,,,
(174){16}1^4[2:3],,,,,,,,,,,,,,,,
{16}8-5[2:1],,,,,,,,,,,,,,,,
(176){16}6/7,,,,,,6/7,,,,,,6/7h[4:1],,,,
{16}6,4,2,8,6,,,,{96}3,4,,,,,{16},,1,7^2[8:1],,,,
(175){24}4,5h[24:8],,{16},,,,1,,28,,3,,45,,6,,
{16}7h[4:1],,8,,5h[4:1],,1,,8,7,4,3,2^7[8:1],,,,
{24}5,4h[24:5],,{16},,,,25,,1,,8,,57,,6,,
{16}2h[4:1],,1,,4h[4:1],,8,,1,2,5,6,7h[4:1],,,,
{24}2,1/8,,{16},,3^6[8:1],,,,
{24}8,1h[24:8],,{16},,,,5,,64,,7,,81,,2,,
{16}3h[4:1],,5,,1h[4:1],,5,,3,2,8,7,6^3[8:1],,,,
{24}1,8h[24:5],,{16},,,,61,,5,,4,,13,,2,,
{16}6h[4:1],,4,,8h[4:1],,4,,6,7,1,2,3^6[8:1],,,,
{24}8-5[8:1],1-4[24:2],,{16},,,,,,{24}36,27,,{16},,1-5[8:37],,,,
||
(178.5)
{16}1h[4:19],,,,,,,,,,,,,,,,,,,,
{16},,,,,,,,,,,,,,,,,,,,
{16},,,,,,,,,,,,,,,,,,,,
{16},,,,,,,,,,,,,,,,,,,,
(178){16}7b,,,,1,,4,3,5-1[8:1],,1^6[8:1],,,,,,5-1[8:1],,5,,
(177.5){16}3,,,,4,,1,2,8^5[8:1],,5^2[8:1],,,,,,8^5[8:1],,8,,
(176.5){16}6,,,,8,,3,5,4-7[8:1],,7-3[8:1],,,,,,4-7[8:1],,5,,
(178.5){16}6-3[8:1],,,,2-7[8:1],,2,,4,,,,65,,54,,43,,,,
(176.5){16}7^4[8:1]/2b,,8,,1-6[8:1],,3,,2-5[8:1],,3,,6,,6,,7,8,7,,
(176.5){16}1^4[8:1],,6,,5-2[8:1],,7,,6^1[8:1],,7,,3,,3,,28,,,,
(174.5){16}6^1[8:1],,5,,4-8[8:1],,3,,2-6[8:1],,1,,8,,8,,7,5,7,,
(174.5){16}46,,5,,24,,3,,8^5[8:1],,1^4[8:1],,8-4[8:1],,1,,,,,,
(175){16}2-5[8:1],,1,,8^3[8:1],,6,,7-4[8:1],,5,,3,,3,,2,3,2,,
(176.5){16}8^5[8:1],,3,,4-7[8:1],,2,,3-8[8:1],,1,,6,,6,,71,,,,
{16}1^4[8:1],,8,,7-3[8:1],,6,,5-1[8:1],,4,,3-6[8:1],,2,,7-2[8:1],,8,,
{16}7,,,,3,,8,1,7,,4,,
(167){16}62,,,,,,,,,,,,
||
(179)
{16}3b,4,3,5b,4,5,3b,,8,1,,,
{16}6b,5,6,4b,5,4,6b,,1,8,,,
(178)
{16}2b,4,2,6b,4,6,2b,,8,1,,,
{16}7b,5,6,3b,5,4,7b,,1,8,,,
(177)
{16}3b,4,3,5b,4,5,3b,,8,1,,,
(176.5)
{16}6b,5,6,4b,5,4,6b,,1,8,,,
(175)
{16}2b,4,3,5b,3,4,2b,,8,1,8,,
(173.5)
{16}4b,6,5,7b,5,6,4b,,8,1,,,
(178)
{16}6b,5,6,3b,4,3,6b,,1,82,,,
(176)
{16}3b,4,3,6b,5,6,3b,,8,17,,,
(179)
{16}6b,5,7,3b,4,2,6b,,1,82,,,
(177.5)
{16}3b,4,2,6b,5,7,3b,,8,17,,,
(176)
{16}2b,4,3,7b,5,6,3b,4,1,82,,,
(175.5)
{16}6b,4,5,1b,3,2,5b,4,7,86,,,
(174)
{16}3b,5,4,8b,6,7,4b,5,2,1,2,1,
(179)
{16}3b,8,5,6b,1-5[8:1],4,2b,7,,
