&title=Black Board
&artist=papiyon
&first=0.02
&des=Tane
&freemsg=papiyon
&wholebpm=
&des_1=Tane
&des_2=Tane
&des_3=Tane
&des_4=Tane
&des_5=Tane
&lv_1=3
&lv_2=4
&lv_3=6
&lv_4=8+
&lv_5=12
&inote_1=(124){1},
{16}4h[16:5],,,,
,,,6h[16:7],
,,,,
,,,,
{16}1h[16:5],,,,
,,,7h[16:7],
,,,,
,,,,
{16}5h[16:5],,,,
,,,3h[16:7],
,,,,
,,,,
{16}8h[16:5],,,,
,,,2h[16:7],
,,,,
,,,,
{16}4h[16:5]/5,,,,
,,,3/6h[16:7],
,,,,
,,,,
{16}1h[16:5]/8,,,,
,,,2/7h[16:7],
,,,,
,,,,
{16}5h[16:5]/4,,,,
,,,6/3h[16:7],
,,,,
,,,,
{16}8h[16:5]/1,,,,
,,,7/2h[16:7],
,,,,
,,,,
{16}8,,7,,
6h[8:3],,,,
,,1,,
2,,3,,
{16}4h[8:3],,,,
,,5^8[4:1],,
,,,,
,,,,
{16}4,,3,,
2h[8:3],,,,
,,5,,
6,,7,,
{16}8h[8:3],,,,
,,1^4[4:1],,
,,,,
,,,,
{16}1,,2,,
3h[8:3],,,,
,,8,,
7,,6,,
{16}5h[8:3],,,,
,,4^1[4:1],,
,,,,
,,,,
{16}5,,6,,
7h[8:3],,,,
,,4,,
3,,2,,
{16}1h[8:3],,,,
,,8^5[4:1],,
,,,,
,,,,
{16}1-5[4:1],,,,
,,,,
7p4[4:1],,,,
,,,,
{16}3^8[4:1],,,,
,,,,
5q8[4:1],,,,
,,,,
{16}2^5[4:1],,,,
,,,,
8p5[4:1],,,,
,,,,
{16}4-8[4:1],,,,
,,,,
6q1[4:1],,,,
,,,,
{16}2^5[4:1],,,,
,,,,
8qq4[4:1],,,,
,,,,
{16}3-8[4:1],,,,
,,,,
5pp8[4:1],,,,
,,,,
{16}4-8[4:1],,,,
,,,,
7pp5[4:1],,,,
,,,,
{16}2^5[4:1],,,,
,,,,
8qq5[4:1],,,,
,,,,
{16}3,,2,,
1h[8:3],,,,
,,4,,
5,,6,,
{16}7h[8:3],,,,
,,8-4[4:1],,
,,,,
,,,,
{16}7,,6,,
5h[8:3],,,,
,,8,,
1,,2,,
{16}3h[8:3],,,,
,,4-8[4:1],,
,,,,
,,,,
{16}6,,7,,
8h[8:3],,,,
,,5,,
4,,3,,
{16}2h[8:3],,,,
,,1-5[4:1],,
,,,,
,,,,
{16}2,,3,,
4h[8:3],,,,
,,1,,
8,,7,,
{16}6h[8:3],,,,
,,5-1[4:1],,
,,,,
,,,,
{16}1,,2,,
3h[8:1],,,5h[8:2],
,,,,
4h[16:3],,,,
{4}6>1[2:1],,,,
{16}2,,3,,
4h[8:1],,,6h[8:2],
,,,,
5h[16:3],,,,
{4}7>4[2:1],,,,
{16}8,,7,,
6h[8:1],,,4h[8:2],
,,,,
5h[16:3],,,,
{4}3<8[2:1],,,,
{16}7,,6,,
5h[8:1],,,3h[8:2],
,,,,
4h[16:3],,,,
{4}2<5[2:1],,,,
{8}2,3,4,5,
4,5,6,7,
{8}6,5,4,5,
4,3,2b,,
{8}3,2,1,8,
1,8,7,6,
{8}7,8,1,8,
1,2,3,,
{8}7,6,5,4,
5,4,3,2,
{8}3,4,5,4,
5,6,7b,,
{8}6,7,8,1,
8,1,2,3,
{8}4p1[2:1]/5q8[2:1],,,,
,,,,
{8}1,2,3,5,
4,6,7,8,
{8}7,6,4,5,
3,2,1b,,
{8}5,6,7,1,
8,2,3,4,
{8}3,2,8,1,
7,6,5,,
{8}8,7,6,4,
5,3,2,1,
{8}2,3,5,4,
6,7,8b,,
{8}4,3,2,8,
1,7,6,5,
{8}4>6[2:1]/5<3[2:1],,,,
,,,,
{16}8-4[4:1],,,,
,,,,
2q5[4:1],,,,
,,,,
{16}6^1[4:1],,,,
,,,,
4p1[4:1],,,,
,,,,
{16}7^4[4:1],,,,
,,,,
1q4[4:1],,,,
,,,,
{16}5-1[4:1],,,,
,,,,
3p8[4:1],,,,
,,,,
{16}7^4[4:1],,,,
,,,,
1pp5[4:1],,,,
,,,,
{16}6-1[4:1],,,,
,,,,
4qq1[4:1],,,,
,,,,
{16}5-1[4:1],,,,
,,,,
2qq4[4:1],,,,
,,,,
{16}7^4[4:1],,,,
,,,,
1pp4[4:1],,,,
,,,,
{16}5h[16:5],,,,
,,,3h[16:7],
,,,,
,,,,
{16}8h[16:5],,,,
,,,2h[16:7],
,,,,
,,,,
{16}4h[16:5],,,,
,,,6h[16:7],
,,,,
,,,,
{16}1h[16:5],,,,
,,,7h[16:7],
,,,,
,,,,
{16}5h[16:5]/4,,,,
,,,6/3h[16:7],
,,,,
,,,,
{16}8h[16:5]/1,,,,
,,,7/2h[16:7],
,,,,
,,,,
{16}4h[16:5]/5,,,,
,,,3/6h[16:7],
,,,,
,,,,
{16}1h[16:5]/8,,,,
,,,2b,
,,,,
,,,,
{1},,,,,,,
&inote_2=(124){1},
{1}4h[1:1],,7h[1:1],,3h[1:1],,8h[1:1],,
{2}8,7,2,3,
{2}6,5,4,5,
{2}1,2,7,6,
{2}3,4,5,4,
{2}1-5[1:1],,,,
{2}7^4[1:1],,,,
{2}1^4[1:1],,,,
{2}7-4[1:1],,,,
{2}8,6,2,4,
{2}1,3,7,5,
{2}8,3,2,5,
{2}1,6,7,4,
{4}1,,,,
{4}8-5[2:1],,,,
{4}2,,,,
{4}7-4[2:1],,,,
{4}8,,,,
{4}1-4[2:1],,,,
{4}7,,,,
{4}2-5[2:1],,,,
{4}4,4,4,,
{4}5,5,5b,,
{4}3,3,3,,
{4}6,6,6b,,
{4}1,1,1,,
{4}8,8,8b,,
{4}2,2,2,,
{4}1h[4:3]/8h[4:3],,,,
{4}1,1,1,,
{4}8,8,8b,,
{4}2,2,2,,
{4}7,7,7b,,
{4}4,4,4,,
{4}5,5,5b,,
{4}3,3,3,,
{4}4h[4:3]/5h[4:3],,,,
{2}5-1[1:1],,,,
{2}3^8[1:1],,,,
{2}5^8[1:1],,,,
{2}3-8[1:1],,,,
{1}5h[1:1],,2h[1:1],,6h[1:1],,1h[1:1],,
{1},,,,,,,
&inote_3=(124){1},
{1}4h[1:1],,7h[1:1],,3h[1:1],,8h[1:1],,
{1}8,7,2,3,
{1}1,2,7,6,
{2}1-5[1:1],,,,
{2}7^4[1:1],,,,
{2}1^4[1:1],,,,
{2}7-4[1:1],,,,
{1}8,6,2,4,
{1}8,3,2,5,
{4}1,,,,
{4}8-5[2:1],,,,
{4}2,,,,
{4}7-4[2:1],,,,
{4}8,,,,
{4}1-4[2:1],,,,
{4}7,,,,
{4}2-5[2:1],,,,
{4}4,,4,,
{4}5,,5b,,
{4}3,,3,,
{4}6,,6b,,
{4}1,,1,,
{4}8,,8b,,
{4}2,,2,,
{4}81,,,,
{4}1,,1,,
{4}8,,8b,,
{4}2,,2,,
{4}7,,7b,,
{4}4,,4,,
{4}5,,5b,,
{4}3,,3,,
{4}45,,,,
{2}5-1[1:1],,,,
{2}3^8[1:1],,,,
{2}5^8[1:1],,,,
{2}3-8[1:1],,,,
{1}5h[1:1],,2h[1:1],,6h[1:1],,1h[1:1],,
{1},,,,,,,,
&inote_4=(124){1},
{16}4,,,,
,,,6,
,,,,
,,,,
{16}1,,,,
,,,7,
,,,,
,,,,
{16}5,,,,
,,,3,
,,,,
,,,,
{16}8,,,,
,,,2,
,,,,
,,,,
{16}4/5,,,,
,,,3/6,
,,,,
,,,,
{16}1/8,,,,
,,,2/7,
,,,,
,,,,
{16}5/4,,,,
,,,6/3,
,,,,
,,,,
{16}8/1,,,,
,,,7/2,
,,,,
,,,,
{4}8,7,2,3,
{4}6,5,4,5,
{4}1,2,7,6,
{4}3,4,5,4,
{4}8,2,2,6,
{4}6,4,4,5,
{4}1,7,7,3,
{4}3,5,5,4,
{4}1-5[2:1],,,,
{4}6^1[2:1],,,,
{4}2^5[2:1],,,,
{4}8-4[2:1],,,,
{4}1^4[2:1],,,,
{4}5-8[2:1],,,,
{4}2-5[2:1],,,,
{4}8^5[2:1],,,,
{4}8,6,2,4,
{4}6,4,5,4,
{4}1,3,7,5,
{4}3,5,4,5,
{4}8,3,2,5,
{4}6,4,5,4,
{4}1,6,7,4,
{4}3,5,4,5,
{4}1h[2:1],,,,
{4}8-5[2:1],,,,
{4}2h[2:1],,,,
{4}7-4[2:1],,,,
{4}8h[2:1],,,,
{4}1-4[2:1],,,,
{4}7h[2:1],,,,
{4}2-5[2:1],,,,
{4}2,3,4,5,
{4}6,5,4,5b,
{4}3,2,1,8,
{4}7,8,1,8b,
{4}7,6,5,4,
{4}3,4,5,4b,
{4}6,7,8,1,
{4}1/8,27,3h[4:1]/6h[4:1],,
{4}1,2,3,5,
{4}7,6,4,5b,
{4}5,6,7,1,
{4}3,2,8,1b,
{4}8,7,6,4,
{4}2,3,5,4b,
{4}4,3,2,8,
{4}4/5,36,2h[4:1]/7h[4:1],,
{4}8-4[2:1],,,,
{4}3^8[2:1],,,,
{4}7^4[2:1],,,,
{4}1-5[2:1],,,,
{4}8^5[2:1],,,,
{4}4-1[2:1],,,,
{4}7-4[2:1],,,,
{4}1^4[2:1],,,,
{16}5,,,,
,,,3,
,,,,
,,,,
{16}8,,,,
,,,2,
,,,,
,,,,
{16}4,,,,
,,,6,
,,,,
,,,,
{16}1,,,,
,,,7,
,,,,
,,,,
{16}5/4,,,,
,,,6/3,
,,,,
,,,,
{16}8/1,,,,
,,,7/2,
,,,,
,,,,
{16}4/5,,,,
,,,3/6,
,,,,
,,,,
{16}1/8,,,,
,,,2/7,
,,,,
,,,,
{1},,,,,,,,
&inote_5=(124){1},
{16}5h[16:5],,,,
,4,,3h[16:7],
,,,,
,,6,,
{16}7h[16:5],,,,
,1,,2h[16:7],
,,,,
,,6,,
{16}4h[16:5],,,,
,5,,6h[16:7],
,,,,
,,3,,
{16}2h[16:5],,,,
,8,,7h[16:7],
,,,,
,,3,,
{16}5h[16:2]/4,,3,4,
3,4,,5/2h[16:7],
,,,,
,,6,,
{16}7h[16:2]/4,,5,7,
6,7,,7/8h[16:7],
,,,,
,,6,,
{16}4h[16:2]/5,,6,5,
6,5,,4/7h[16:7],
,,,,
,,3,,
{16}2h[16:2]/5,,4,2,
3,2,,2/1h[16:7],
,,,,
,,3,,
{16}8,,7h[16:3],,
4,4,,6h[16:13],
,,4,,
5,,7,,
{16}8,,1,,
2^5[4:1],2,,5,
,,6,,
7,,,,
{16}8,,7h[16:3],,
4,4,,6h[16:13],
,,3,,
2,,1,,
{16}8,,7,,
5^2[4:1],5,,7,
,,6,,
5,,,,
{16}1,,2h[16:3],,
5,5,,3h[16:13],
,,5,,
4,,2,,
{16}1,,8,,
7^4[4:1],7,,4,
,,3,,
2,,,,
{16}1,,2h[16:3],,
5,5,,3h[16:13],
,,6,,
7,,8,,
{16}1,,2,,
4^7[4:1],4,,2,
,,3,,
4,,,,
{16}78,,12,,
2,4,3,5,
,,57,,
68,,17,,
{16}21,,87,,
7,5,6,4,
,,42,,
31,,82,,
{16}78,,13,,
3,4,2,5,
,,57,,
68,,17,,
{16}21,,86,,
6,5,7,4,
,,42,,
31,,82,,
{16}78,,14,,
2,5,3,7,
,,57,,
46,,35,,
{16}21,,85,,
7,4,6,2,
,,42,,
53,,64,,
{16}67,,53,,
2,4,3,6,
,,78,,
56,,34,,
{16}32,,46,,
7,5,6,3,
,,21,,
43,,65,,
{16}78,,7h[16:3],,
1,1,,8h[16:13],
,,2,,
3,,4,,
{16}5,,6,,
7^4[4:1],7,,1,
,,2,,
3,,,,
{16}34,,3h[16:3],,
5,5,,4h[16:13],
,,7,,
8,,1,,
{16}2,,3,,
5^2[4:1],5,,6,
,,7,,
8,,,,
{16}21,,2h[16:3],,
8,8,,1h[16:13],
,,7,,
6,,5,,
{16}4,,3,,
2^5[4:1],2,,8,
,,7,,
6,,,,
{16}65,,6h[16:3],,
4,4,,5h[16:13],
,,2,,
1,,8,,
{16}7,,6,,
4^7[4:1],4,,3,
,,2,,
1,,,,
{16}12,,2^5[8:1],,
5,,2,7h[16:7],
,,8,,
1,,2,,
{16}4b/3,,,4b/7,
,,5b/6,,
,5b/2,,,
1b/8b,,,,
{16}68,,5^8[8:1],,
2,,5,4h[16:7],
,,1,,
2,,3,,
{16}7b/5,,,7b/8,
,,2b/1,,
,2b/4,,,
4b/5b,,,,
{16}87,,7^4[8:1],,
4,,7,2h[16:7],
,,1,,
8,,7,,
{16}5b/6,,,5b/2,
,,4b/3,,
,4b/7,,,
8b/1b,,,,
{16}31,,4^1[8:1],,
7,,4,5h[16:7],
,,8,,
7,,6,,
{16}2b/4,,,2b/1,
,,7b/8,,
,,7b/8b,,
1b/2b,,,,
{16}2^4[12:1],,8^5[12:1],,
2,,8,2,
,3,5,4,
7-4[8:1],,4-7[8:1],,
{16}7,,1-5[12:1],,
1,,1,8,
,7,4,6,
1b,,,,
{16}5<1[8:2],,1,,
5,,3,3,
,4,4h[8:1],,
8-4[8:1],,4-8[8:1],,
{16}8,,2-5[12:1],,
2,,2,8,
,8,6,7,
1b,,,,
{16}7^5[12:1],,1^4[12:1],,
7,,1,7,
,6,4,5,
2-5[8:1],,5-2[8:1],,
{16}2,,8-4[12:1],,
8,,8,1,
,2,5,3,
8b,,,,
{16}4>8[8:2],,8,,
4,,6,6,
,5,5h[8:1],,
1-5[8:1],,5-1[8:1],,
{16}1,,7-4[12:1],,
7,,7,1w5[8:1],
,,,,
,,,,
{16}7-4[12:1],,1-5[12:1],,
7,,1,8,
,7,2,5,
1^4[12:1],,5^2[12:1],,
{16}1,,7-3[12:1],,
7,,7,1,
,2,5,3,
7b,,,,
{16}4V28[8:2],,8,,
4,,6,6,
,5,5h[8:1],,
8-4[8:1],,4-8[8:1],,
{16}8,,7^4[12:1],,
7,,7,1,
,1,4,2,
7b,,,,
{16}2-5[12:1],,8-4[12:1],,
2,,8,1,
,2,7,4,
8^5[12:1],,4^7[12:1],,
{16}8,,2-6[12:1],,
2,,2,8,
,7,4,6,
2b,,,,
{16}5V71[8:2],,1,,
5,,3,3,
,4,4h[8:1],,
1-5[8:1],,5-1[8:1],,
{16}1,,2^5[12:1],,
2,,2,8w4[8:1],
,,,,
,,,,
{16}1,5,2,7,
2,4,3,6,
,,5b/7,,
6/8,,1b/7,,
{16}8,4,7,2,
7,5,6,3,
,,4b/2,,
31,,8b/2,,
{16}1,6,3,7,
3,4,2,6,
,,5b/7,,
68,,1b/7,,
{16}8,3,6,2,
6,5,7,3,
,,4b/2,,
31,,8/2b,,
{16}1,7,4,8,
2,5,3,7,
,,4b/7,,
25,,1b/3,,
{16}8,2,5,1,
7,4,6,2,
,,3b/8,,
16,,5b/7,,
{16}4,7,3,5,
2,4,3,6,
,,7/8b,,
56,,3/4b,,
{16}5,2,6,4,
7,5,6,3,
,,2/1b,,
43,,6/5b,,
{16}1/8h[16:5],,,,
,1,,2h[16:7],
,,,,
,,7,,
{16}6h[16:5],,,,
,4,,3h[16:7],
,,,,
,,7,,
{16}1h[16:5],,,,
,8,,7h[16:7],
,,,,
,,2,,
{16}3h[16:5],,,,
,5,,6h[16:7],
,,,,
,,2,,
{16}8h[16:2]/1,,2,1,
2,1,,8/3h[16:7],
,,,,
,,7,,
{16}6h[16:2]/1,,8,7,
8,7,,6/5h[16:7],
,,,,
,,7,,
{16}1h[16:2]/8,,7,8,
7,8,,1/6h[16:7],
,,,,
,,2,,
{16}3h[16:2]/8,,1,2,
1,2,,3/4,
,,,,
,,,,
{1},,,,,,,,
