&title=モチベーションが死んでる
&artist=ピノキオピー
&first=0.6
&des=E-KETTLE
&lv_5=14
&des_5=E-KETTLE
&inote_5=
(128){4},8h[16:3]/1h[16:3],{16}1,8h[8:1],,6,,8,{8}1,
8,8,4,4,{16}4,5,,5,,5,{8}4,
{4}5h[8:1],5h[16:3]/4h[16:3],{16}5,4h[8:1],,2,,4,{8}5,
4,4,8,8,{16}8,1,,1,,1,{8}8,
{4}8h[8:1]/1h[8:1],8h[16:3]/1h[16:3],{16}1,8h[8:1],,6,,8,{8}1,
8,8,4,4,{16}4,5,,5,,5,{8}4,
{4}5h[8:1],5h[16:3]/4h[16:3],{16}5,4h[8:1],,2,,4,{8}5,
4,4,8,8,{16}8,1,,1,,1,{8}8,
{4}8h[8:1],{8}1-5[8:1],2,1/7-3[8:1],6,7/1,2,
1,1,8-4[8:1],7,8/2-6[8:1],3,2/8,7,
8,8,1-5[8:1],2,1/7-3[8:1],8,7/1,8,
1,1,8-4[8:1],7,8/2-6[8:1],1,2/8,1,
8,8,4-8[8:1],3,4/6-2[8:1],5,6/4,5,
4,4,5-1[8:1],6,5/3-7[8:1],4,3/5,4,
5,5,4<8[8:1]*>8[8:1],3/5,{4}4,{8}1,1,
1-4[16:1],1x-6[16:1],1x,1x,,3x,7x,3x,
8x,2x,8-4[8:1],7,8/2-6[8:1],3,2/8,7,
8,8,1-5[8:1],2,1/7-3[8:1],6,7/1,2,
1,1,8-4[8:1],7,8/2-6[8:1],1,2/8,1,
8,8,1-5[8:1],2,1/7-3[8:1],8,7/1,8,
1,1,5-1[8:1],6,5/3-7[8:1],4,3/5,4,
5,5,4-8[8:1],3,4/6-2[8:1],5,6/4,5,
4,4,5>1[8:1]*<1[8:1],6/4,{4}5,{8}8,8,
8p5[4:1]*q3[4:1],8,{4}8x,{8},,,4/5h[8:3],
3,2,1,6h[8:3]/B8,B7,B6,B5,3/5xh[8:3],
2,1,8,6h[8:3]/B7,B6,B5,B4,2/5h[8:3],
1,8,7,6h[2:1]/B6,B5,B4,{4}B3,
{8},4h[8:3],{4}5h[4:1],{8},,,4/5h[8:3],
3,2,1,6h[2:1]/B8,B7,B6,B5,4xh[8:1],
2h[8:1],8h[8:1],{4}6h[4:1],{16},,,4h[16:5],,5h[16:3],{32},,,,,,,,4x,
3x,2x,1xh[32:29],5x,6x,7x,8xh[32:25],{4},,,{16},,{8}4/5,
3,4/5,6,4/5,5/4h[8:3],
6,7,8,3h[8:3]/B1,B2,B3,B4,6/4xh[8:3],
7,8,1,3h[8:3]/B2,B3,B4,B5,7/4h[8:3],
8,1,2,3h[2:1]/B3,B4,B5,{4}B6,
{8},5h[8:3],{4}4h[4:1],{8},,,5/4h[8:3],
6,7,8,3h[2:1]/B1,B2,B3,B4,5xh[8:1],
7h[8:1],1h[8:1],{4}3h[4:1],{16},,,5h[16:5],,4h[16:3],{32},,,,,,,,5x,
6x,7x,8xh[32:29],4x,3x,2x,1xh[32:25],{4},,,{16},,{8}3,
6,{16}4-1[16:1],5,4,5,{4}4b,
{24}3x,4x,5x,6x,7x,8x,1x,2bx/6b,{48},,,,,{16}3-8[0.5859##0.1172]/7-4[0.5859##0.1172],,,{8}6/2,{4}3/7,
{16},,8,4,8h[8:1],,,8w4[8:1],,4w8[8:1],,8b,{48},,,,,,,,,,,,,,,,,,{24}6x,
5x,4x,3x,2x,1x,8x,{12}7bx/3b,{48},,,{16}6-1[0.5859##0.1172]/2-5[0.5859##0.1172],,,{8}3/7,2/6,
{16},,5,1,5h[8:1],,,5w1[8:1],,1w5[8:1],,5b,,,,,,,8x,
4x,8h[8:1],,,8w4[8:1],,4w8[8:1],,8b,,,,,,,2,
6-2s6[1.2891##1.1719],2h[8:1],,,6<6[1.9922##0.9375],,2h[16:3]/6h[16:3],,,,,{8}6b,
{16},,,,,,,,,E7,E8,E1,E2,E3,E4,E5,
{8}E6,{16}B2,B6,{8}B2,6x,3x,6x,3x,6x,
{16},4,5,3,6,2,7,1,8,1,7,2,6,3,5,4,
,,2,6,3h[8:1],,,7,,,{8}2,2b,{16}7b,7b,
,5,6,7,6,4,6,8,6,3,6,1,6,2,{8}6,
{16},,7,3,6h[8:1],,,2,,,{8}7,7b,{16}2b,2b,
,,3,7,2h[8:1],,,6,,,{8}3,3b,{16}6b,6b,
,,6,2,7h[8:1],,,3,,,{8}6,,3b-7-3[0.2344##0.4688],
{1}3<3[1:1],
{8},,7,3x,{16}7,7,,3,,7,3,7,
{4}3,6h[8:1],{16}2,2,,6,,2,6,2,
{8}6,2,{16}5b,3,5,3,5b,4,5,4,5b,5,5b,5,
{4}5bh[16:1],{8}5b/6h[8:1],5,{16}8,8,,1b,1,1b,1,2b,
1,2,{8}1bh[8:1],3,{16}3b,4,3b,4,{8}3,8h[16:5],{16}7,6,
5,4h[8:1],,,{8}1xh[16:1]/8xh[16:1],1h[16:1]/8h[16:1],{16},2,1,3bx,7,8,6bx,3b,
4,2bx,6b,5,7bx/1bh,1h,1h,1h,{8}1bh[16:1],{16}8,2,7,1,8,2,
{4}8bh[8:1],{16}1-5[8:1],2,{8}3,1/7-3[8:1],6,7/1,2,
{16}1,8,{8}1,{16}8-4[8:1],7,{8}6,8/2-6[8:1],3,2/8,7,
8,8,{16}1-5[8:1],2,{8}3,1/7-3[8:1],8,7/1,8,
1,1,{16}8-4[8:1],7,{8}6,8/2-6[8:1],1,2/8,1,
8,8,{16}4-8[8:1],3,{8}2,4/6-2[8:1],5,6/4,5,
4,4,{16}5-1[8:1],6,{8}7,5/3-7[8:1],4,3/5,4,
{16}5,4,{8}5,4<8[8:1]*>8[8:1],{16}3,5,{4}4,{16}1,8,{8}1,
{4}1-4[8:1],{16}1x,8,7,6,,,{8}3x,7x,3x,
8x,2x,{16}8-4[8:1],7,{8}6,8/2-6[8:1],3,2/8,7,
{16}8,1,{8}8,{16}1-5[8:1],2,{8}3,1/7-3[8:1],6,7/1,2,
{16}1,8,{8}1,{16}8-4[8:1],7,{8}6,8/2-6[8:1],1,2/8,1,
{16}8,1,{8}8,{16}1-5[8:1],2,{8}3,1/7-3[8:1],8,7/1,8,
{16}1,8,{8}1,{16}5-1[8:1],6,{8}7,5/3-7[8:1],4,3/5,4,
{16}5,4,{8}5,{16}4-8[8:1],3,{8}2,4/6-2[8:1],5,6/4,5,
{16}4,5,{8}4,5>1[8:1]*<1[8:1],{16}6,4,{4}5,{8}8,8,
8p5[4:1]*q3[4:1],8,{4}8x,,2h[16:3]/7h[16:3],
2h[16:3]/7h[16:3],{8}3h[16:1]/6h[16:1],7h[16:1]/2h[16:1],{16}1b,8b,,2,{8}7,1b/8h[8:3],
2,3,4,7h[8:3]/B5,B6,B7,B8,2b/8xh[8:3],
3,4,5,7h[8:3]/B6,B7,B8,B1,3b/8h[8:3],
4,5,6,7h[2:1]/B7,B8,B1,{4}B2,
{16},,,1h[8:3],,8h[4:1],,,,,,,,,,1b/8h[8:3],
,2,,3,,4,,7h[2:1]/B5,,B6,,B7,,B8,,1xh[8:1],
,3h[8:1],,5h[8:1],,7h[4:1],,,,,,,{8}1h[16:5],8h[16:3],
{32},,,,,,1x,2x,3x,4xh[32:29],8x,7x,6x,5xh[32:25],{4},,,{16},,1/8,
,2,,1/8,,7,,1/7,,8b/1h[8:3],
,7,,6,,5,,2h[8:3]/B4,,B3,,B2,,B1,,7b/1xh[8:3],
,6,,5,,4,,2h[8:3]/B3,,B2,,B1,,B8,,6b/1h[8:3],
,5,,4,,3,,2h[2:1]/B2,,B1,,B8,,B7,,,,,,8h[8:3],
,1h[4:1],,,,,,,,,,8b/1h[8:3],
,7,,6,,5,,2h[2:1]/B4,,B3,,B2,,B1,,8xh[8:1],
,6h[8:1],,4h[8:1],,2h[4:1],,,,,,,{8}8h[16:5],1h[16:3],
{32},,,,,,8x,7x,6x,5xh[32:15],1x,2x,3x,4xh[32:11],,,,,,,,,,,,,,,,,,,5/4,
,,6/3,,,,,,,{16}6bxh[16:3]/3bxh[16:3],,,,,{8}2/7,1,7/2,
{16}8,2w6[8:1],7,2,7,2b,,,{2}Ch[4:3],
{4},6h[2:1],2,2h[2:1],
7,7h[2:1],3,3h[2:1],
7,8-4[4:1],8,1-5[4:1],
1,7h[2:1],2,2h[2:1],
6,6h[2:1],3,3h[2:1],
6,8-4[4:1],8,1-5[4:1],
1,7h[4:1],{24},D8,A8,D1,A1,D2,{4}A2f,
{16}3,4,3,4,{4}3h[4:1],{8},Ch[4:1],{16},,,,6,
5,6,5,{4}6h[4:1],{8}5,6h[4:1],{16},,,,4,
5,4,5,{4}4h[4:1],{8}5,4h[8:3],,,5,
4h[4:1],,,{2}Ch[8:3],
{16}2,1,3,1,{4}2h[4:1],{8},Ch[4:1],{16},,,,7,
8,6,8,{4}7h[4:1],{8}8,7h[4:1],{16},,,,1,
8,2,8,{4}1h[4:1],{8}8,1h[8:3],,,8,
1h[4:1],,8,1/8,1,1/8,8,
2/8,8/1,7/1,8/1,2/7,1/8,2/1,8/7,
8/1,2/7,{16}3b,6,3,6,4b,5,4,5,4b,6,3,5,
3b,5,2,4,3b,3,3,3,3b,3,3,3,{32}3b,4,5,6,7,8,1,2,
3b,4,5,6,7,8,1,2,{8}3,6xh[16:1],{16}6xh[16:1],,,2/7,2-5[8:1]/7-2[8:1],,,1/8,
,2x/7x,{48},,,6x,,7x,,8x,,1x,,6b/2bx,,,,,,,{16}3-8[0.5859##0.1172]/7-4[0.5859##0.1172],,,6/2,,3/7,,,,,8,
4,8h[8:1],,,8w4[8:1],,4w8[8:1],,8b,{48},,,,,,,,,,,,,,,,,,{24}6,
5,4,3,2,1,8,{12}3b/7b,{48},,,{16}6-1[0.5859##0.1172]/2-5[0.5859##0.1172],,,{8}3/7,2/6,
{16},,5,1,5h[8:1],,,5w1[8:1],,1w5[8:1],,5b,,,,,,,8x,
4x,8h[8:1],,,8w4[8:1],,4w8[8:1],,8b,,,,,,,7,
3-7z3[1.2891##1.1719],7h[8:1],,,3>3[1.9922##0.9375],,7h[16:3]/3h[16:3],,,,,{8}3b,
{16},,,,,,,,,E3,E2,E1,E8,E7,E6,E5,
{8}E4f,{16}7x,3,7,2,6,2,6,2,5,1,5,1,5,8,
4,8,4,{48}8x,,7,,6,,5,,4,,3,,2,,5b/1b,,,,,,,{8}8-3[0.5859##0.1172]/4-7[0.5859##0.1172],{16},5/1,,4/8,
,,,7,3,7h[8:1],,,{8}7w3[8:1],3w7[8:1],{4}7b,
{48},,,,,,,,,1,,2,,3,,4,,5,,6,,7,,4b/8b,,,,,,,{8}1-4[0.5859##0.1172]/5-8[0.5859##0.1172],{16},6/2,,1/5,
,,,8,4,8h[8:1],,,{8}8w4[8:1],4w8[8:1],{4}8b,
{16},,1,5,1h[8:1],,,1w5[8:1],,5w1[8:1],,1b,,,,,,8,
4,8h[8:1],,,{8}8,4,3,{4}2h[4:1],
{24},,7x,8x,1x,2x,3x,4x,5x/1,6x/2,7x/3,8x/4,5,6,7,8,1,2,3,4,5,6,7,8,
{48},,,,,,{16}1,5,1h[8:1],,,1w5[8:1],,5w1[8:1],,1b,{48},,,,,,,,,,,,,,,,{24}2x,
1x,8x,7x,6x,5x,4x/8,3x/7,2x/6,1x/5,4,3,2,1,8,7,6,5,4,3,2,1,
{48},,,,,,{16}3,7-3z7[1.2891##1.1719],3h[8:1],,,7<7[1.9922##0.9375],,3h[16:3]/7h[16:3],,,,,{8}7b,
{16},,,,,,,,,E7,E6,E5,E4,E3,E2,E1,
{8}E8f,{16}6,2-6s2[1.2891##1.1719],6h[8:1],,,2>2[1.9922##0.9375],,6h[16:3]/2h[16:3],,,,,{8}2b,
{16},,,,,,,,,E3,E4,E5,E6,E7,E8,E1,
{8}E2f,6,2,6,{16}2,2,,6,,2,6,2,
{4}6,3h[8:1],{16}7,7,,3,,7,3,7,
{8}3,7,{16}4b,6,4,6,4b,5,4,5,4b,4,4b,4,
{4}4bh[16:1],{8}4b/3h[8:1],4,{16}1,1,,8b,8,8b,8,7b,
8,7,{8}8bh[8:1],6,{16}6b,5,6b,5,{8}6,1h[16:5],{16}2,3,
4,5h[8:1],,,{8}8xh[16:1]/1xh[16:1],8h[16:1]/1h[16:1],{16},3,4,2bx,6,5,7bx,2b,
2,2bx,7b,7,7bx/1bh,1h,1h,1h,{8}1bh[16:1],{16}7,1,8,2,7,1,
{8}8bh[8:1],{16}1,1,{4}7h[8:1]/2h[8:1],{16}6h[8:1],3h[16:1],,3b,6,3,6,4b,
5,3,5,4,6b,4,5b,3,4b,2b,5,3b,6,4b,6,5b,
7b,5,,,{4}5h[8:1]/4h[8:1],{16}3b,4,3,2,3b,5,3,1,
3b,6,3,8,3b,7,2b,6,1b,5b,8,5b,8,4b,1,5b,
2b,6,,,{4}4h[8:1]/5h[8:1],{16}5,4,,6,,2,7,3,
{8}6,6,{16}3b,6,4,6,3b,5,4,5,4b,6,4b,5,
{4}4bh[16:1],{8}1b/8h[8:1],1,{16}6,6,,5b,7,5b,6,4b,
5,4,{8}5bh[8:1],3,{16}3b,6,2b,7,3b,6bh[16:5],,4,,5,
7x,8x,1x,2x,
E
