&title=Supernatural
&artist=春野
&first=0
&des=这曲谁投的
&des_5=这曲谁投的
&lv_5=12+
&inote_5=(124){4},,,,4h[8:1],
4h[8:1],4h[8:1],4,
4,4,4,4,
5h[8:1],5h[8:1],5h[8:1],5,
5,5,5,5,
4h[8:1],4h[8:1],4h[8:1],4,
4,4,4,4,
5h[8:1],5h[8:1],5h[8:1],5,
{8}6h[8:3]/4h[2:1],,,,,6,3,5,
4h[8:1],6,4h[8:1],6,4h[8:1],6,4,6,
{16}4h[8:1],,,7,{8}4h[8:1],6,4h[8:1],5,4,4,
5h[8:1],3,5h[8:1],3,5h[8:1],3,5,3,
{16}5h[8:1],,,2,{8}5h[8:1],3,5h[8:1],4,5,5,
4h[8:1],6,4h[8:1],6,4h[8:1],6,4,6,
{16}4h[8:1],,,7,{8}4h[8:1],6,4h[8:1],5,4,4,
5h[8:1],3,5h[8:1],3,5h[8:1],3,5,3,
{16}5h[8:5],,,2,,,{8}3,4,3,4/6>3[4:3],5/7,
{4}8,8,8,8<5[4:3],
2,2,2,2<7[4:3],
4,4,4,4>1[4:3],
6,5,4,3<6[4:3],
1,1,1,1>4[4:3],
7,7,7,7>2[4:3],
5,5,5,5,
5,1h[4:1],{8}8,2,{4}7h[16:1]/3h[16:1],
6/2-7[4:1],7-4[4:1],4-1[4:1],1,
6-3[4:1],3-8[4:1],8-5[4:1],5,
2-5[4:1],5-1[4:1],1-6[4:1],6,
7-2[4:1],2-6[4:1],6-1[4:1],1,
2>5[4:1],{8}5-1[4:1],7,{4}1<6[4:1],6,
4-8[4:1],{8}8<5[4:1],2,{4}4,1,
{16}3,4,2,5,3,4,1,5,3,4,8,5,3<6[8:1],4,7,5,
3b,{32},,,,,,,,,,,,5,4,{8}6,2,{16}3,5,{8}4,
{32}3/8h[16:1],4,{16}5,{32},,,,7/2h[16:1],6,{16}5,{32},,,,6h[16:1]/1-5[8:1],2,{16}3,,,{4}1/4,
{8}5/6h[8:1],{16}3,4,1,7,3,4,1,6,5,8,{4}3h[8:1],
{32}6/1h[16:1],5,{16}4,{32},,,,2/7h[16:1],3,{16}4,{32},,,,3h[16:1]/8-4[8:1],7,{16}6,,,{4}5/8,
{8}4/3h[8:1],{16}6,5,8,2,6,5,{8}7/4,{16}8,2,4,2,{8}6,
{32}2/7h[16:1],3,{16}4,{32},,,,6/1h[16:1],5,{16}4,{32},,,,5h[16:1]/8-4[8:1],1,{16}2,,,{4}8/3,
{8}5/7h[8:1],{16}4,5,2,8,4,5,2,8,5,6,{4}3h[8:1],
{32}7/2h[16:1],6,{16}5,{32},,,,3/8h[16:1],4,{16}5,{32},,,,4h[16:1]/1-5[8:1],8,{16}7,,,{4}1/6,
{8}4/2h[8:1],{16}5,4,7,1,5,4,7,1,4,3,7,5,{8}1,
{32}3/8h[16:1],4,{16}5,{32},,,,2/7h[16:1],3,{16}4,{32},,,,6h[16:1]/1-5[8:1],2,{16}3,,,{4}1/4,
{8}5/6h[8:1],{16}3,3,5,4,6,6,1,4,3,7,{4}5h[8:1],
{32}6/1h[16:1],5,{16}4,{32},,,,7/2h[16:1],6,{16}5,{32},,,,3h[16:1]/8-4[8:1],7,{16}6,,,{4}8/5,
{8}4/3h[8:1],{16}6,6,4,5,3,3,{8}4/2,{16}3,7,5,7,{8}1,
{32}2/7h[16:1],3,{16}4,{32},,,,1/6h[16:1],2,{16}3,{32},,,,5h[16:1]/8-4[8:1],1,{16}2,,,{4}8/3,
{8}5/7h[8:1],{16}2,2,8,1,7,7,5,6,3,4,{4}1h[8:1],
{32}7/2h[16:1],6,{16}5,{32},,,,8/3h[16:1],7,{16}6,{32},,,,4h[16:1]/1-5[8:1],8,{16}7,,,{4}1/6,
{8}4/2h[8:1],{16}7,7,1,8,2,2,4,3,6,5,8,2,{8}4,
{4}1h[8:1],1h[8:1],1h[8:1],1h[8:1],
7h[8:1],7h[8:1],7h[8:1],7h[8:1],
3h[8:1],3h[8:1],3h[8:1],3h[8:1],
5h[8:1],5h[8:1],5h[8:1],5h[8:1],
4h[8:1],4h[8:1],4h[8:1],4h[8:1],
6h[8:1],6h[8:1],6h[8:1],6h[8:1],
2h[8:1],2h[8:1],2h[8:1],2h[8:1],
{8}8,{16},,,,1,8,{8}2,6h[4:1],{4}4h[8:1],
3/7-2[4:1],2-5[4:1],5-8[4:1],8,
3-6[4:1],6-1[4:1],1-4[4:1],4,
7-4[4:1],4-8[4:1],8-3[4:1],3,
2-7[4:1],7-3[4:1],3-8[4:1],8,
7<4[4:1],{8}4-8[4:1],2,{4}8>3[4:1],3,
5-1[4:1],{8}1>4[4:1],7,{4}5,8,
{16}6,5,7,4,6,5,8,4,6,5,1,4,6>3[8:1],5,2,4,
6b,{4},,{16},,{32}4,5,{4}3,
{32}4/7,3/6,{16}2/5,{32},,,,4/7,3/6,{16}2/5,{32},,,,7-3[8:1]/4-8[8:1],3/6,{16}2/5,,,{4}7/4,
{8}5/1h[8:1],{16}3,2,5,4,7,6,1,2,5,4,{4}7h[8:1],
{32}5/2,6/3,{16}7/4,{32},,,,2/5,3/6,{16}4/7,{32},,,,5-1[8:1]/2-6[8:1],3/6,{16}4/7,,,{4}5/2,
{8}4/8h[8:1],{16}6,7,4,5,2,3,{8}1/4,{16}2,6,8,6,{8}4,
{32}8/5,7/4,{16}6/3,{32},,,,8/5,7/4,{16}6/3,{32},,,,8-4[8:1]/5-1[8:1],7/4,{16}6/3,,,{4}5/8,
{8}7/3h[8:1],{16}1,2,5,4,7,8,4,2,6,5,{4}7h[8:1],
{32}4/1,5/2,{16}6/3,{32},,,,1/4,2/5,{16}3/6,{32},,,,4-8[8:1]/1-5[8:1],2/5,{16}3/6,,,{4}1/4,
{8}2/6h[8:1],{16}8,7,4,5,2,1,{8}4,2/1,7/8-3[8:1],6/5,
{32}3-7[8:1],4,{16}5,{32},,,,7-4[8:1],6,{16}5,{32},,,,1-5[8:1],2,{16}3,,,{8}8,7h[4:1],
5,{16}1,1,4,3,6,6,{8}5,8/7,2/1-6[8:1],3/4,
{32}6-2[8:1],5,{16}4,{32},,,,2-5[8:1],3,{16}4,{32},,,,8-4[8:1],7,{16}6,,,{8}1,2h[4:1],
4,{16}7,7,4,5,2,2,{8}3,8/1,6/7-2[8:1],4/5,
{32}2-6[8:1],3,{16}4,{32},,,,6-3[8:1],5,{16}4,{32},,,,8-4[8:1],1,{16}2,,,{8}7,6h[4:1],
4,{16}3,3,8,1,6,6,{8}7,8/1,3/2-7[8:1],5/4,
{32}7-3[8:1],6,{16}5,{32},,,,3-8[8:1],4,{16}5,{32},,,,6-2[8:1],5,{16}4,,,{4}6/3,
{8}2/1h[8:1],{16}3,3,5,4,6,6,1,8,3,6,1>4[8:1],8,4,5,
{4}6/1<6[8:1],2/1-5[8:1],1/7-3[8:1],7/1,
{8}1h[8:1],{16}2,3,4,5,6,5,4,3,2,1,{4}8<5[8:1],
1/8>3[8:1],7/8-4[8:1],8/2-6[8:1],8/2,
{8}8h[8:1],{16}7,6,5,4,3,2,{8}7/1,{16}5,3,1>4[8:1],3,{8}7,
{4}8/1<6[8:1],2/1-5[8:1],1/7-3[8:1],7/1,
{8}1h[8:1],{16}2,3,4,5,6,5,4,3,2,1,{4}8<5[8:1],
1/8>3[8:1],7/8-4[8:1],8/2-6[8:1],8/2,
{8}8h[8:1],{16}7,6,5,4,3,2,{8}1/8,6/3,{16}1/8-4[8:1],2/7,{8}3/6,
{4}8/1-5[8:1],1/2-6[8:1],2/3<6[8:1],3/7,
{8}1/8h[8:1],{16}7,6,5/1,4,3,4,5/8,6,7,8,{4}7/1-5[8:1],
1/8-4[8:1],8/7-3[8:1],7/6>3[8:1],6/2,
{8}8/1h[8:1],{16}2,3,4/8,5,6,7,{8}8/2,{16}4,6,8-4[8:1],6,{8}2,
{4}8/1-5[8:1],1/2-6[8:1],2/3<6[8:1],3/7,
{8}1/8h[8:1],{16}7,6,5/1,4,3,4,5/8,6,7,8,{4}7/1-5[8:1],
1/8-4[8:1],8/7-3[8:1],7/6>3[8:1],6/2,
{8}8/1h[8:1],{16}2,3,4/8,5,6,7,3,6,4,5,3-6[8:1],6,5,4,
{1}3b,
E
