&title=【プロセカ】抜錨
&artist=ナナホシ管弦楽団
&first=0.04
&des=illusionika
&lv_5=13+
&inote_5=(140)
{16},,,,,,,,,,,,,,,,,,,,,,,,,,,,,,,,
,,,,{12}A6,,,2,5,3,6,4,7,3,6,2h[16:4],5,,,
7,4,6,3,5,2,6,3,7h[16:4],4,,,
1,5,2,7,3,6,4,5,3,4,2,5,
{12}1/6,2,3,7/4,6,5,1-7[8:1]/4-8[8:1],,,1/4>2[8:1]*<6[8:1],,,
4bx,,,7<4[8:1],,8,7,,1,1>4[8:1],,8,
1,,7,3,5,2,1>4[8:1]/5<8[8:1],,,1-6[8:1]/5-2[8:1],,,
1/5
,,,7<4[8:1],,8,7,,1,1>4[8:1],,8,
1,,7,4/8,3/7,2/6,1h[8:2]/5h[8:2],,,,,,
3-5[8:1],,2,3,,1,2,,8,1,,,
6-4[8:1],,7,6,,8,7,,1,8,,,
5-7[8:1],,4,5,,3,4,,2,1,,,
1-3[8:1],,8,1,,7,8,,6,5,,,
4-2[8:1],,5,4,,6,5,,7,8,,,
8-6[8:1],,1,8,,2,1,,3,4,,,
3-1[8:1],,4,3,,5,4,,6,7,,,
1-5[8:1]/5,,6,1>4[8:1],,7,1<6[8:1],,,3/1,,,
3,4,5,3<5v4<6[8:3],,4,3,,,7,,8,
8pp8[16:4],,,8<5[16:3],,,3,,2>5[16:3],2,,7,
,,,7/5-1[8:1],,4,5,,3,3<6[8:1],,2,
3,,7,7p4[16:5],,3,7,,,2b,,,
4,5,6,4<7[8:1],,3,4,,,2,,1,
1<6[8:1],,,1>4[8:1],,,1/8,,6,5<8[8:1],,4,
5,,,2<6[8:2],,6,6<2[8:2],,,4,,,
6-1[8:1],,6,4-7[8:1],,4,2-5[8:1],,2,8-3[8:1],,8,
6bh[8:2],,,,,2b-7[8:1]/1b-4[8:1],3/8,,,,,6b-3[8:1]/5b-8[8:1],
7/4,,,,,,4-1b[8:1]/5-8b[8:1],,,4b/5b/Cf,,,
7h[12:2],5,4,6h[12:2],4,3-8[8:1],5-1[8:1],2,3,5,,,
2h[12:2],4,5,3h[12:2],5,6-2[8:1],4-1[8:1],7,6,4,,,
7h[12:2],3,2,6h[12:2],2,1-5[8:1],7-4[8:1],2,1,7,,3,2h[12:2],
,7,8<5[8:1],,1,8>3[8:1],,,7/8,,,
5,2h[12:1],6,7,3h[12:1],8-4[8:1],2-5[8:1],3,8,2,,,
4,7h[12:1],3,2,6h[12:1],1-5[8:1],7-3[8:1],2,1,7,,,
2-6[8:1],4,5,2,,7,7,,4,4<8b[8:2],,,
8bx>4b[8:2],,,,6,7,8<8[8:6]*>8[8:6],,,,,,
,,,,,,,,,3-1b[16:2]/4-6b[16:2],,,
4b/3b,,,5pp7b[16:2]*qq3b[16:2],,,5b,,,2-4[8:1],,2,
6-8[8:1],,6,1-5[8:1],,1,7-3b[8:1],,,7bx,,,
1h[12:2],5,5,6h[12:2],2,2,3h[12:2],7,7,8h[12:2],4,4,
3b-8[8:1]/7b,,4,,5,5>2[8:1],6,,7/5,,8,8<5[8:1],
1,,2/8,,2,3,4<3[16:6],,,,,,
6,,6,,4,3-5[8:1],7-3[8:1],,3,7,,,
2b,,1>4[8:1],5,6,7,8h[8:2],,,,,3,
2>4[8:1],,5<8[8:1],2,,5,1-5[8:1],,2
,1,,,7<5[8:1],,4>1[8:1],7,,4,8-4[8:1],,7
,8,,6,6h[8:6],,,,,4,4h[8:2],,,,,,
2,1,2,7,8,7,1-5[8:1],,,1b,,,
7,4,6,3,1,7-3[8:1],2-8[12:1],3,7,2,,,
2,5,4,7,2,8-4[8:1],3-1[12:1],2,8,3,,,
2,7,1,3,6,7<4[8:1],1-5[8:1],2,7,1,,,
8,2,7,1<2[8:3],1,,8/1,,,,,,
2,6,4,8,3,2-5[8:1],7-1[12:1],6,2,7,,,
6,4,7,3,8,1-4[8:1],6-8[12:1],7,1,6,,,
3,2/5,6,1,2/6,7,8-4b[16:2],2,,8x,,,
3,4,2,6,5,7,1-5[16:2],,,,,,
4/8,7,3,6,5/1,2-5[8:1],6-1[8:1],7,2,6,,,
8,4/7,3,6x,2/5,1-5[8:1],6-8[12:1],7,1,6,,,
2,3/7,6,2,1/6,5,8-4b[8:1],7,1,8bx,,,
2,4,3,7,5,6,1b-5b[8:1],,,,,,
8,7/4,3,6,2,1>4[8:1],7-3[8:1],6,1,7,,,
2,5/4,6,3,7,8<5[8:1],2q6[8:1],3,8,2,,,
7,6,4,3/5h[12:1],,2,5,3,6,4bpp4[8:3]*qq4[8:3],,,
,,,,,,,,,,,,
1b/5,2,3,7/4,6,5,4/8-4[8:1],1,2,3/8,,,
7/3,6,5,1/4,2,3,4/8-4[8:1],7,6,5/8,,,
2-5[8:1]/5,3,5,2,6,7-4[8:1],8,5,7,3,2,1,
2/6,2/6,3/7,3/7,4/8,4/8,1-5[8:1]/5,,,1b/7,,,
7b-4[8:1],,3-8[8:1],7,3x,3x,6b-1[8:1],,2-5[8:1],6,2x,2x,
8b-5[8:1],,4-1[8:1],8,4x,4x,7-3b[8:1],,,7b,,,
2b-5[8:1],,6-1[8:1],2,6x,6x,3b-8[8:1],,7-4[8:1],3,7x,7x,
1b-4[8:1],,5-8[16:2],1,5x,5x,2bz6b[8:1],,,,
