&title=Sexy Love
&artist=T-ara
&first=-0.07
&des=salap
&lv_5=13
&inote_5=(132)
{1},
{4}3h[2:1],4,6h[2:1],5,
{4}3h[2:1],4,6h[2:1],5,
{4}2h[2:1],5,7h[2:1],4,
{4}2h[2:1],5,7h[2:1],4,
{8}3,3h[4:1],4,,6,6h[4:1],5,,
{8}2,2h[4:1],5,,7,7h[4:1],4,,
{8}1h[8:3],5,7,,8h[4:1],4,2,1/8,
{16}Cf,,,,,,,,4b,,4b,5b,,3b/6b,,,
{8}1-7[8:1],1,6-2[8:1],6,3-5[8:1],3,,7,
{8}8-2[8:1],8,3-7[8:1],3,6-4[8:1],6,,1,
{8}2<7[8:1],2,3,4,5>2[8:1],5,6,7,
{16}8,,,,8,,,,7V51[8:1],8,7,,4,,2,,
{8}2-4[8:1],2,5-1[8:1],5,8-6[8:1],8,,C,
{8}1>3[8:1],1,4p8[8:1],4,7<5[8:1],7,,C,
{8}3<6[8:1],3,2,1,8>3[8:1],8,7,6,
{16}5,,,,5,,,,7-3-7[8:1],3,7,,,,,,
{16}1-5[8:1],,,2,1,,3,,8-4[8:1],,,7,8,,6,,
{16}1-6[8:1],,,2,1,,4,,8-3[8:1],,,7,8,,5,,
{8}6pp5[8:1],4,3,2,1pp1[8:1],4,5,6,
{8}7qq1[8:1],5,4,3,2pp5[8:1],5,6,7,
{16}8>3[8:1],,,5h[16:3],7,,,,1<6[8:1],,,4h[16:3],2,,,,
{16}8>3[8:1],,,5h[16:3],7,,,,1<6[8:1],,,4h[16:3],2,,,,
{8}1-4[8:1],4-1[8:1],5,6,7-4[8:1],4<6[8:1],3,2,
{8}1-5[8:1],5v2[8:1],6,7,8,1-3[8:1]/7-5[8:1],2/6,1-4[8:1]/7-4[8:1],
{8},1/7,,1,3/7,1>4[8:1]*<6[8:1],3/7,1w5[8:1],
{8},1,,,3/5-1[8:1],4,5/6,7,
{8}4-8[8:1]/6,5,4/3,2,3/5-1[8:1],4,5/6,7,
{8}4-8[8:1]/6,5,4/3,,2/6,7>2<7[3:1]/3<6>3[3:1],2/6,7/3,
{8},,,,1/5,2-5-2[3:1]/6-1-6[3:1],1/5,2/6,
{8},,,,2/5,7/4,1-6[8:1]/6,,
{8}1w5[8:1]/3,,1,,2v5>1[8:3]/7v4<8[8:3],5/4,7/2,,
{16},,,,,,,,1b/5b,,8b,4b,,3b<6[16:1]/7b>2[16:1],,,
{8}7-3[8:1]/3,,3<6[8:1]/7>2[8:1],,7-3[8:1]/3,,3<6[8:1]/7>2[8:1],,
{8}7-3[8:1]/3,,3<6[8:1]/7>2[8:1],,7-3[8:1]/3,,7/3,,
{8}2/4-8[8:1],4/6,2/4,,1q5[8:1],5v3[8:1],6,7,
{8}8v2[4:1]*v5[4:1],,Cf,,,,8>2b[8:1]/4<6b[8:1],,
{8}8-4[8:1]/4,,8>2b[8:1]/4<6b[8:1],,8-4[8:1]/4,,8>2b[8:1]/4<6b[8:1],,
{8}8-4[8:1]/4,,8-2b[8:1]/4-6b[8:1],,8-4[8:1]/4,,8/4,,
{8}3/5-1[8:1],5/7,3/5,,3V15[8:1],5,6,7,
{16}5v2[4:1]/8v5[4:1],,,,Cf,,,,,,,,7,2,5,4,
{4}6bx-8[8:1],8bx-4[8:1]/6,4bx-2[8:1]/8,4bx/2,
{8}1>3[8:1],8-4[8:1],1q5[8:1],8,1,,B2/B3/B4/B5/B6/B7/E5/Cf,,
{16}2,,6,5,7,,2,,6,,3,3,5,,4,,
{16}7,,1,3,2,,5,,3,,7,5,6,,2,,
{4}7bx-1[8:1],1bx-5[8:1]/7,5bx-3[8:1]/1,5bx/3,
{8}4-7[8:1],5,4-1[8:1],3,4,,B2/B3/B4/B5/B6/B7/E5/Cf,,
{16}7,,3,4,2,,7,,3,,6,6,4,,5,,
{16}2,,8,6,7,,4,,6,,2,,3,7,4,5,
{8}3h[8:7],4,5,6,7,6,5-1[8:1],4,
{8}7h[8:7],,1,2,3,4,3-7[8:1],2,
{8}1h[4:3],,8,2,7,3,5-8[8:1],,
{16}8w4[8:1],,,,8,,,,3,4,,1,8,,5/6,,
{16}3v8[8:1]/8-5[8:1],,,,3/8,,,,2,4,,7,5,,1/8,,
{8}2/7<4[8:1],,5,1-5[8:1],3,5,8>3[8:1],4,
{8}2,,1q5[8:1]/5q1[8:1],1/5,1/5,,1<5[8:1]/5>1[8:1],1/5,
{16}1/5,,,,,,,,1b/5b,,8b,4b,,3b<6[16:1]/7b>2b[16:1],,,
{8}7-3[8:1]/3,,3b<6b[8:1]/7b>2[8:1],,7-3[8:1]/3,,3b<6[8:1]/7b>2b[8:1],,
{8}7-3[8:1]/3,,3b<6b[8:1]/7b>2[8:1],,7-3[8:1]/3,,7b/3b,,
{8}2v8[8:1]/4p8[8:1],3/5,2/4,,1V35[8:1],5v2[8:1],6,7,
{8}8v2[4:1]*v5[4:1],,Cf,,,,8>2b[8:1]/4<6b[8:1],,
{8}8b-4b[8:1]/4b,,8>2b[8:1]/4<6b[8:1],,8b-4b[8:1]/4b,,8>2b[8:1]/4<6b[8:1],,
{8}8b-4b[8:1]/4b,,8-2b[8:1]/4-6b[8:1],,8b-4b[8:1]/4b,,8/4,,
{8}3v8[8:1]/5-1[8:1],1/7,3/5,,3v5>4-1[8:1],8,7,6,
{16}5v8[4:1]/8v2[4:1],,,,Cf,,,,,,,,7,2,5,4,
{4}6bx-8[8:1],8bx-4[8:1]/6,4bx-2[8:1]/8,4bx/2,
{8}1>3[8:1],8-4[8:1],1q5b[8:1],8,1,,B2/B3/B4/B5/B6/B7/E5/Cf,,
{16}2,,7,5,6,,2,,6,,3,3,4,,2,,
{16}7,,1,3,2,,6,,3,,8,1,7,,2,,
{4}7bx-1b[8:1],1bx-5b[8:1]/7,5bx-3b[8:1]/1,5bx/3,
{8}4>2[8:1],5,4-8[8:1],5,4,,B2/B3/B4/B5/B6/B7/E5/Cf,,
{16}7,,2,4,3,,7,,3,,6,6,5,,7,,
{16}2,,8,6,7,,3,,6,,1,8,2,,7,,
{8}6v3[8:1],6,2-6[8:1],2,5q1[8:1],5,,C,
{8}3v8[8:1],3,7-3[8:1],7,4p8[8:1],4,,C,
{8}1-5[8:1],2,1/6-8[8:1],7,6/1q5[8:1],2,1/6v1[8:1],7,
{16}6/3,,,,3,,,,2x/4x,3x/5x,4x/6x>3[8:1],,5/8,,2/6,,
{8}1q6[8:1],1,7v4[8:1],7,1v7[8:1],1,,C,
{8}5q2[8:1],5,3v8[8:1],3,5v3[8:1],5,,C,
{8}1-3[8:1],8,4-8[8:1]/1,5,4/1q5[8:1],2,1/7-3[8:1],6,
{16}7/1,,,,1,,,,2x/4x,3x/5x,4x/6x>3[8:1],,5/8,,6/Ch[8:5],,
{16},,,,,,,,8b,,2b,6b,,4b/8b,,,
{1}B2f/B3f/B4f/B5f/B6f/B7f/E5f/Cf,
