&title=レイル・ロマネスク(ハチロクver.)
&artist=種崎敦美
&first=0.03
&des_1=uapy
&des_2=uapy
&des_3=uapy
&des_4=uapy
&des_5=uapy
&lv_5=13
&des_6=uapy
&des_7=uapy
&des=uapy
&inote_5=(64){4},,,,{2}5>3[8:1],
4<6[8:1],
5>2[8:1],4<7[8:1],
1qq4[4:1],8pp5[4:1],
2q3[4:1],7pp5[4:1],
{6}4b>6[4:1],{12}5,6<4[4:1],,5,{6}4p3[4:1],{12}5,6,,,{6}5<3[4:1],
{12}4,3>5[4:1],,4,{4}5q8[4:1],3,
{6}1>7[4:1],{12}8,7<1[4:1],,8,{6}1pp5[4:1],{12}8,7,,6,
{6}6<4[4:1],{12}5,4>6[4:1],,5,{2}6p4[4:1],
2h[2:1],4h[2:1],
5h[2:1],7<2[4:1],
{6}1h[4:1],{12}8,7h[4:1],,6,{6}5h[4:1],{12}4,3h[4:1],,2,
{6}2q3[4:1],{12}3,3<8[4:1],,5,{2}5qq8[4:1],
{6}1>3[12:1],{12}8,7>1[12:1],,6,{6}5<7[12:1],{12}4,3<5[12:1],,2,
{6}1-4[12:1],{12}8,7-2[12:1],,6,{6}5-8[12:1],{12}4,3,,,{6}2v5[12:1],
{12}3,4v7[12:1],,5,{6}6v1[12:1],{12}7,8v3[12:1],,1,
2/8v5[12:1],1,1,6/8-4[12:1],7,7,{2}8qq7[8:1]*pp1[8:1],
{48}8b>8[4:1],7,6,5,4,3,2,1,8,7,6,5,,,,,{12}8,8,{48}1<1[4:1],2,3,4,5,6,7,8,1,2,3,4,,,,,{12}1,1,
8-6[16:1],1-5[12:1],{6}2-4[16:1],{48},,,,,,,,1q7[6:1],8,7p1[8:1],6,5,4,3,2,1,8,7,6,,,,,,,,,,,,,{12}8>4[12:1],
7,6,5>1[12:1],6,7,8>4[12:1],7,6,5qq8[4:1],,7,
{6}8pp5[4:1],{12}6,5qq7[4:1],,6,{2}7>4[16:3],
{48}8bqq5[4:1],7,6,5,4,3,2,1,8,7,6,5,,,,,{12}1,1,{48}1pp4[4:1],2,3,4,5,6,7,8,1,2,3,4,,,,,{12}8,8,
7h[12:1],5h[12:1],3h[12:1],6h[12:1],4h[12:1],2h[12:1],{48}4pp1[4:1],5,6,7,8,1,2,3,4,5,6,7,,,,,{12}8,8,
7q3[12:1],1,5,6-3[12:1],5,1,7q3[12:1],1,5,6-3[12:1],,1,
{6}1>4[12:1],{12}5,5<8[12:1],,4,{2}4>5[6:1],
{48}4qq4[8:1],,,,,,,3,{12}3,4pp4[8:1],5,5,4qq4[8:1],3,{3}3,
{48}5pp5[8:1],,,,,,,6,{12}6,5qq5[8:1],4,4,{2}5pp5[8:1],
{48}3qq5[6:1],,,,,,,2,{12}2,6pp4[6:1],7,7,3qq5[6:1],2,2,,,6,
{6}6>3[12:1],{12}2,2q7[48:5],,8,{2}8<1[4:1],
E
