&title=TOKIMEKIエスカレート
&artist=THE IDOLM@STER
&first=0
&des=倒霉孩子竞标没过只能拿着机关枪把会场突了
&lv_5=13+
&inote_5=(140){4},,,,{1}7h[8:7],
2h[4:3],
6q8[4:3],
1w5[2:1],
{4}3/5h[4:1],2,3/5h[4:1],2,
6/4h[4:1],7,{24}4-2[8:1],5,4,5,,,,,,,,,{4}3/5h[4:1],
2,3/5h[4:1],{8}2,5,
{4}6/4h[4:1],7,6/4h[8:1],7h[8:1],
6/2h[8:1],3/7h[8:1],{8}2/6,3/7,{4}2pp5[4:3]/6pp1[4:3],
{8},,,,,,,,7/1-5[8:1],
2,1/8,7,2-5[8:1],{16}8,8,,,{8}1,
1-6[8:1],6v4[8:1],,,1-4[8:1],5,,6,
8h[16:3],{16}2-5[8:1],2,,,{8}7,8-5[8:1],7/4-1[8:1],8/3,4,
{16}6b,,,2/5h[16:3],,,{8}4qq2[8:1],{2}4pp6[8:1],
{8}2/8-4[8:1],7,8/1,2,7-4[8:1],{16}1,1,,,{8}8,
8v2[8:1],3V57[4:1],,,1v8[8:1],1,,7,
1h[16:3],{16}7-5[8:1],7,,,{8}2,3-7[8:1],4/2,3,5,
{16}1/6,,,3/5,,,{8}6/4,{4}7/5-1[8:1],{8}8b,8b,
{16}2,2,{8}8,{16}2,2,{8}7,{16}2-7[8:1],2,{8}6-3[8:1],2,6,
{16}8,8,{8}4,{16}8,8,{8}5,{16}8-4[8:1],8,{8}6-1[8:1],8,6,
{16}3,3,{8}7,{16}3,3,{8}6,{16}3-8[8:1],3,{8}5-8[8:1],3,5,
1,{16}1,1,1,1,{8}2/8,8,{16}1-5[8:1],8,2,7,,,{4}6h[4:1],
4,3h[4:1],5,
2-5[8:1],6-3[8:1],{2}4V27[4:1],
{4}5h[4:1],2,4h[4:1],7,
3-6[8:1],7-2[8:1],{2}1h[4:1],
{8}4h[4:1],6,{4}7,{8}5h[4:1],3,{4}2,
1-5[8:1],7-4[8:1],{2}3p1[4:1],
{8}6h[4:1],2,3,7,4h[4:1],6,5,3,
2/6,{16}3,4,{8}2,{16}6,6,5,7,4,4,{4}5<8[2:1],
3h[8:1],2h[8:1],3h[8:1],2h[8:1]/8p6[2:1],
1h[8:1],2h[8:1],1h[8:1],6h[8:1]/2p1[2:1],
5h[8:1],6h[8:1],5h[8:1],6h[8:1]/8>3[2:1],
7h[8:1],6h[8:1],7h[8:1],6h[8:1]/4h[8:1],
{8}3/5,{16}4,5,{8}3,{16}6,5,{8}7,{16}4-7[8:1],5,{8}3,2,
2,{16}1,1,{8}8,{16}7,7,{8}8,{16}1>4[8:1],1,{8}8b,1b,
,6b-2[8:1],7,6b/5,,3b-8[8:1]*-8[8:1],2,{16}3b/4,5,
6,6,2,2,5,5,3,3,4/5-8[8:1],4/5,{8}4/5,4/5,{16}3,3,
{8}1-5[8:1],5pp7[8:1],1,2,{16}1-5[8:1],1,,7,{8}1,{16}6,6,
{8}4,3/5p3[4:1],2,3q8[6:1],,1b,1b,{16}2,8,
{8}1p5[8:1],{16}2,2,{8}1,3,6/4-1[8:1],3/7-4[8:1],4,7,
1,{16}2,4,{8}3q5[4:1],2,3/7,8b,8b,7-5[8:1],
8/4-8[8:1],7/3,4,6,{16}8-4[8:1],8,,7,{8}8,6-1[8:1],
2-5[8:1],6<3[4:1],2,6,5,5qq3[8:1],,1,
8,{16}7,7,{8}8,{16}1,1,{4}8qq6[8:1]*pp2[8:1],8b,
{8}4,5/3,2/6,1/7,{16}8,8,8,8,{8}7/1,{16}6,6,
{8}8-4[8:1],4qq2[8:1],8,6,{16}8-4[8:1],8,,2,{8}8,{16}3,3,
{8}5,6/4q6[4:1],7,6>1[16:3],,8b,8b,{16}7,1,
{8}8q4[8:1],{16}7,7,{8}8,6,3/5-1[8:1],6/2-5[8:1],5,2,
8,{16}7,5,{8}6pp4[16:5],3,6/2,1b,1b,2-5[8:1],
3/6-1[8:1],2/7,6,3,{16}1-5[8:1],1,,2,{8}1,3-8[8:1],
2/7-4[8:1],6/3>6[4:1],7,3,4,4pp6[8:1],,8,
1,{16}2,2,{8}1,{16}8,8,{4}1qq7[8:1]*pp3[8:1],1b,
{8}2/8,{16}3,5,{8}4,{16}7,8,6,1,5,2,4,3,{8}8bpp6[8:11],
,,,,,,,,,,,,{4}4,
{8}5,5bqq8[8:11]*qq1[8:11],
,,,,,,,,,,,,,,1b,
1b,
{16}3b,5,3,5,4,6,4,6,2,8,2,8,1,7,1,7,
2,6,3,5,4,6,3,7,3,1,2,2,6,8,7,7,
3b,4,3,4,2,6,2,6,1,5,1,5,3,7,3,7,
1b,8,1,8,1,8,1,8,2b,4,3,5,4,6,5,7,
8b,7,8,6,1,6,1,5,2b,4,3,5,2,6,2,6,
1b,7,2,8,1,7,2,6,3b,3,3,3,6b,6,6,6,
4b,7,4,7,2,6,2,6,3b,5,4,7,5,6,3,7,
1b,8,1,8,1,8,1,8,2b,4,3,5,4,6,5,7,
1b,5,3,7,1,5,3,4,2b,6,4,8,2,6,4,8,
2b,1,3,4,2,7,8,7,1b,1,1,1,6b,6,6,6,
5b,7,4,6,5,7,4,8,3b,1,2,4,1,8,5,7,
4b,4,4,4,8b,8,8,8,3b,3,6b,6,4b,4,5b,{8}5bpp2[8:5]*qq8[8:5],
E
