&title=彩
&artist=MisoilePunch♪
&first=0
&des=TCXLZ
&lv_5=14
&inote_5=(170){2},,,,,
{16}1,2,3,4,5pp1[8:12],,,,,,,,,,,,8,1,2,3,4,,,,
{8},5,,,4,3,8q5[8:3]/2h[8:4],,,,,,,{16}4,3,2qq1[8:3]/6h[8:4],,{8},,,,,
{16}8,7,6,5,4qq8[8:12],,,,,,,,,,,,1,8,7,6,5,,,,
{8},4,,,5,,1p4[8:3]/7h[8:4],,,,,,,{16}7,6,5pp7[8:1]/1h[8:2],,{8},,,
{16}1,2,3,4,5,6,7,8,
{16}1b,,7,8,6,,2,1,3,,7,8,6,,2,4,3,,7,5,6,,2,4,3,,7,5,6,,2,1,3,,
7,6,51,,2,3,48,,6,5,41,,3,4,
{16}5h[16:1]/8h[16:1],,,8h[16:1]/7h[16:1],,,3h[16:1]/1h[16:1],,,5h[16:1]/6h[16:1],,,
1>4[8:1]/8-4[8:1],,2/7,,,,,,
{16}1b/2,8,7,6,8,7,6,5,7,6,5,4,6,5,4,3,5,4,3,2,1h[16:3]/5h[16:3],,,,84,73,62,51,
{8}4/8-4[8:1],8,7-3[8:1],7,6-2[8:1],6,5,5,
{16}4h[16:1]/8h[16:1],,,7h[16:1]/6h[16:1],,,2h[16:1]/5h[16:1],,,4h[16:1]/7h[16:1],,,
8b<2[8:2]/1b-5[8:1],,2b/7b,,,,,,{8},,,,,,
{4}4b>4[4:7]/5h[4:2],,,,5,4,3,4<4[4:7],3,,,6,6,5<8[4:1],5,,
{16}4h[4:1]/8h[4:3],,,,,,4,3,2h[8:1],,,,2h[8:1],,,,
1h[4:3]/7h[4:1],,,,,,7,6,5h[8:1],,,,5h[8:1],,,,
{16}1/5h[4:1],,,,1,,,,1,5,2,6,3,7,4,8,5bV38[8:2]*-8[8:2],,,,,,,,,,,,
{16}1/5,,3/7,,7<5[8:1],,8,1,7,,3,,46,,8,,35,,1,,
7/2h[8:2],,8,7,6-1[8:1],,3,,46,,,,
{16}8/4,,6/2,,2>4[8:1],,1,8,2,,6,,53,,1,,64,,8,,
2/7h[8:2],,1,2,3-8[8:1],,6,,5-2[8:1]/3,,6,,53,,,,
{16}1/7<5[8:1],,8,1,7,,3,,46,,8,,35,,1,,
{16}7-3[8:1],6,5/1-5[8:1],2,37,,1,,6,,7,,2,,3,,
{16}7,8,7,8,5,4,5,4,1,2,1,2,4,3,4,3,
{16}8,7,6,5,4,3,2,1,{32}8,7,6,5,4,3,2,1,8-4[8:1],7,6,5,4,3,2,1,8bV63[4:12],,,,,,,,
{4},,,,5h[8:1],4h[8:1],3h[8:1],2h[8:1],1h[8:1],8-3[4:2],,,,
{4}4h[4:1],5h[4:1],6V83[4:12],,,,,
{4}1h[8:1],2h[8:1],3h[8:1],4h[8:1],5h[8:1],6V47[4:2],,,,,
{16}15,2,3,4,5h[8:1]/1b-5[4:3],,,,7,,3,,1h[4:2],,,,{8},,,1,8,2,7,3,6,4,
{16}5b,,,8/7,,,1/6,,5b/2b,,,8/1,,,2-5[8:1]/7-4[8:1],,4bV68[8:2]/5bV31[8:2],,
{8},,,,,72,63,5h[4:2]/4h[4:4],,,,,,,{16}8,7,6h[4:2],,,,,,1,2,3h[4:1],,,,,,,,
{32}6b,5,4,,,,2b,3,4,,,,8b,7,6,,,,1b,2,3,,,,
8b,7,6,,1b,2,3,4,8bp6[8:3]/5,,,,
{4},,{16},,1,2,3,4,5b<7[8:1],,,,,,
{16}8-3[8:1],1,2,,8-5[8:1],,4,,8q4[8:1],,2q1[8:2],,8<3[8:2],,{8}2,8,,,
{16}8,7,6,5,4b>2[8:1],,,,,,
{16}1-6[8:1],8,7,,1-4[8:1],,5,,1p5[8:1],,7p8[8:2],,1>5[8:2],,{8}7,1,,,
{16}8-4[8:1],,17,,8h[4:1],,,,,,
8-5[8:1],71,6/2h[8:1],,8-3[8:1],,1,,8,,7,,8-4[8:1],,4-8[8:1],,8,,,,
{8}1,2,3,4h[8:2]/6,7,8,{16}7,6,{8}5h[8:2]/3,2,1,{16}2,3,
{16}4b/6b,,,7b/8b,,,3b/5b,,1b/2b,,,,
{16}7,6,54,3,2-5[8:1],,,,
{16}2b,,8,7,6h[8:1],,2,,5h[8:1],,1,,4h[8:1],,8,,
4v2[8:1]/8v6[8:1],51,62,73,84,,,,
{16}3,2,18,7,6-1[8:1],,,,
{16}6b,,4,3,2h[8:1],,6,,1h[8:1],,5,,8h[8:1],,4,,
8v6[8:1]/4v2[8:1],15,26,37,48,,,,
{8}73,51,{16}26,,,57,,,38,,27,,45,,36,,27,,
{12}1b,1,1,7b,7,7,5b,,,
{16}8,4,7,3,{8}2/6b-1[8:1],5,62,3,6v1[8:1]/4,5,62,3,
{16}4b,6,3,5,1,7,2,6,1b,5,3,6,4,7,2,5,1bqq3[8:13],,,,
{4},7,,{16}6,,,6,,,5,,5-8[8:1],,,,
{4},4q7[8:13],,2,{16},,1,2,3,,,3,,,4,,3q7[8:1],,2,,3,,,,
{8}1-4[12:1],1,7-2[12:1],7,5-8[12:1],5,6-3[12:1],6,
8-4[12:1],8,7-3[12:1],7,5-1[12:1],5,8,7,
3/6h[8:1],2,1/8h[8:1],2,3/6h[8:1],2,1/8h[8:1],2,
3h[8:1]/6,7,8/5h[8:1],7,6/3h[8:1],7,8/5h[8:1],7,
{12}2h/6b,5,4,7h/3,2,1,8-6[12:1]/4h,,,8b/1,2,3,4/5,6,7,8/1,2,3,4/6b,7,8,1/2,3,4,
5h/8b,7,6,5/8h,4,3,2-8[12:1]/5h,,,2b/4,5,6,7/8,1,2,3/4,5,6,7/1b,2,3,4/5,6,7,
{16}1h[8:2]/8-5[8:1],,,,8,,1,2,3/8-6[8:1],,,2h[16:3],,,,,
15,26,37,48,5,6,7,8,15,62,73,84,5,6,7,8,
{12}1b/5,,8b/5,,2b/5,,1/6b,,1/4b,,1/7b,,
{16}6h[8:1]/1b,2,3,4,5,6,7,8,
{32}1/6b,5,4,3,2,1,8,7,6,5,4,3,2,1,8,7,6pp4[8:6]/2b-5[8:2],,,,,,,,
{4},,,,,,
{16}8,1,2,3,4h[8:2],,,,,,
{16}7,6,5<8[8:1],,1h[8:1],,5>3[8:1],,1h[8:1],,5,,1,,15,26,37,48,51,,,,
{16}1,8,7,6,5h[8:2],,,,,,
{16}2,3,4>1[8:1],,8h[8:1],,4<6[8:1],,8h[8:1],,4,,8,,84,73,62,51,48,,,,
{16}1-5[8:1],,82,,1h[4:1],,,,,,
1-4[8:1],28,3/7h[8:1],,1-6[8:1],,8,,1,,2,,1-5[8:1],,5-1[8:1],,1,,,,
{8}8,7,6,5h[8:2]/3,2,1,{16}2,3,{8}4h[8:2]/6,7,8,{16}7,6,
{16}5b/3b,,,2b/1b,,,6b/4b,,8b/7b,,,5b/3b,,,8b/1b,,,,,,
{48}1b/8b,27,36,45,,,
{16},,4-1[8:1]/5,,27,,46,,5,,2/4h[8:1],,8,,14,25,36,47,5/8h[8:1],,
6,5,48,37,26,15,8/4>8[8:2],,,,8/4,7,6,5,4h[8:1],,7,6,5,4,36,27,1-5[8:1]/8h[8:3],,,,
1pp3[8:1]*qq7[8:1],,,,1b,,,,
{8},,{16}15,,,43,,,61,,72,,54,,63,,72,,
{12}1b/7,1/7,1/7,8b/2,8/2,8/2,1b/7b,,,
{16}8,4,7,3,{8}2/6b-1[8:1],5,62,3,6bv1[8:1]/4,5,62,3,
{32}3b/8h[32:3],4,5,,,,7b/1h[32:3],6,5,,,,1b/8h[32:3],2,3,,,,8b/1h[32:3],7,6,,,,
1b,2,3,,8b,7,6,5,1bq4[8:4]*p6[8:4]/4b,,,,{8},,,,,,,
(181.33){16}1b,1,6,6,,3,,5,,2,3,4,6,7,8,,
(170){16}2,2,7,7,,4,,6,,2,1,3,7,8,6,,
(181.33){16}3b,3,8,8,,5,,7,,2,3,4,8,7,6,,
(170){16}4,4,7,7,,6,,1h[8:3],,3,4,5,6,7,8,,
(181.33){16}2b,3,7,6,,24,,15,,7,6,5,1,2,3,,
(170){16}6,7,3,2,,68,,51,,2,4,3,7,5,6,,
(170){16}2b,3,4,5,6,7,8,1,2/6,5,4,3,2,1,8,7,
(170){32}6/1b,2,3,4,5,6,7,8,1,2,3,4,5,6,7,8,
1/5b,4,3,2,1,8,7,6,5,4,3,2,1,8,7,6,5-8[4:7]/4z8[4:7],,,,,,,,4b/5b,,,,,,,,
