&title=風の唄
&artist=MAMI
&first=0
&des=Tane/おにねこ &des_5 =Tane &des_6 =おにねこ
&lv_2=4
&lv_3=5
&lv_4=7
&lv_5=13
&lv_6=13
&inote_2=(100){1},,,,{4},
{4}1,,,,,,7,,,,,,
{4}8,,,
{4},,,
{4}1,,,
{4},,,
{8}1,,,
,,,
{8}3,,,
,,,
{8}8,,,
,,,
{8}6,,,
,,,
{8}5,,,
,,,
{8}4,,,
,,,
{8}4qq6[8:6]/5pp3[8:6],,,
,,,
{8},,,
,,,
{8}1,,,
,,,
{8}56,,,
,,,
{8}78,,,
,,,
{8}36,,,
,,,
{8}8,,,
,,,
{8}43,,,
,,,
{8}21,,,
,,,
{8}63,,,
,,,
{8}1,,,
,,,
{8}5,,,
,,,
{8}8,,,
,,,
{8}6,,,
,,,
{8}5,,,
,,,
{8}1,,,
,,,
{8}4,,,
,,,
{8}2,,,
,,,
{8}2<4[8:3],,,
,,,
{8}4,,,
,,,
{8}7>5[8:3],,,
,,,
{8}5,,,
,,,
{8}5,,,
,,,
{8}8,,,
,,,
{8}3,,,
8b,,,
{4}5b,,,
{8}2,,,
4,,,
{8}7,,,
8,,,
{8}3,,,
7,,,
{4}4,,,
{8}3,,,
4,,,
{8}5,,,
7,,,
{8}2,,,
7,,,
{8}4b,,,
1b,,,
{8}7,,,
5,,,
{8}2,,,
1,,,
{8}6,,,
2,,,
{4}5,,,
{8}6,,,
,,,
{8}4,,,
,,,
{8}7,,,
,,,
{8}4,,,
,,,
{4}8<8[4:5],,,
{4},,,
{8}4,,,
,,,
{8}2,,,
,,,
{8}7-3[8:3],,,
,,,
{8}2-6[8:3],,,
,,,
{8}1v2[8:3],,,
,,,
{8}8v7[8:3],,,
,,,
{8},1-5[8:7],,
,,,{8},,,
,,,
{8},,,
,,,{8},,,
,,,
{1},,,,,,,,
&inote_3=(100){1},,,,{4},
{4}1,,,5,,,7,,,3,,,
{4}8,,,
{4}4,,,
{4}1,,,
{4}5,,,
{8}1,,,
2,,,
{8}3,,,
4,,,
{8}8,,,
7,,,
{8}6,,,
5,,,
{8}5,,,
,,,
{8}4,,,
,,,
{8}4qq6[8:6]/5pp3[8:6],,,
,,,
{8},,,
,,,
{8}1,,,
,,,
{8}56,,,
,,,
{8}78,,,
,,,
{8}36,,,
,,,
{8}8,,,
,,,
{8}43,,,
,,,
{8}21,,,
,,,
{8}63,,,
,,,
{8}1,,,
2,,,
{8}5,,,
6,,,
{8}8,,,
2,,,
{8}6,,,
7,,,
{8}5,,,
6,,,
{8}1,,,
2,,,
{8}4,,,
6,,,
{8}2,,,
3,,,
{8}2<4[8:3],,,
,,,
{8}4,,,
,,,
{8}7>5[8:3],,,
,,,
{8}5,,,
,,,
{8}5,,,
,,,
{8}8,,,
,,,
{8}3,,,
8b,,,
{4}5b,,,
{8}2,,3,
4,5,6,
{8}7,,,
8,1,2,
{8}3,,8,
7,6,5,
{4}4,,,
{8}3,,,
4,,,
{8}5,,6,
7,8,1,
{8}2,,8,
7,6,5,
{8}4b,,,
1b,,,
{8}7,,6,
5,4,3,
{8}2,,,
1,8,7,
{8}6,,1,
2,3,4,
{4}5,,,
{8}6,,,
5,,,
{8}4,,,
2,,,
{8}7,,,
5,,,
{8}4,,,
2,,,
{4}8<8[4:5],,,
{4},,,
{8}4,,,
7,,,
{8}2,,,
5,,,
{8}7-3[8:3],,,
,,,
{8}2-6[8:3],,,
,,,
{8}1v2[8:3],,,
,,,
{8}8v7[8:3],,,
,,,
{8},1-5[8:7],,
,,,{8},,,
,,,
{8},,,
,,,{8},,,
,,,
{1},,,,,,,,
&inote_4=(100){1},,,,{4},
{4}1,,,5,,,7,,,3,,,
{4}8^5[4:1],,,
{4}4^1[4:1],,,
{4}1^4[4:1],,,
{4}5^8[4:1],,,
{8}1h[4:1],,,
2h[4:1],,,
{8}3h[4:1],,,
4,4,4,
{8}8h[4:1],,,
7h[4:1],,,
{8}6h[4:1],,,
5,5,5,
{8}5<2[8:3],,,
,,,
{8}4>7[8:3],,,
,,,
{8}4qq6[8:6]/5pp3[8:6],,,
,,,
{8},,,
,,,
{8}1,,,
34,,,
{8}56,,,
7,,,
{8}78,,,
12,,,
{8}36,,,
45,,,
{8}8,,,
65,,,
{8}43,,,
2,,,
{8}21,,,
87,,,
{8}63,,,
,,1,
{8}1,,2,
2,,5,
{8}5,,6,
6,,7,
{8}8,,1,
2,,5,
{8}6,,7,
7,,5,
{8}5,,6,
6,,1,
{8}1,,2,
2,,3,
{8}4,,5,
6,,1,
{8}2,,,
3,3,3,
{8}2<4[8:3],,,
,,,
{8}4q5[8:3],,,
,,,
{8}7>5[8:3],,,
,,,
{8}5p4[8:3],,,
,,,
{8}5<2[8:3],,,
,,,
{8}8<4[8:3],,,
,,,
{8}3,2,1,
8b,7b,6b,
{4}5b,,,
{8}2h[4:1],,3,
4,5,6,
{8}7h[8:3],,,
8,1,2,
{8}3h[4:1],,8,
7,6,5,
{4}4h[2:1],,,
{8}3h[8:3],,,
4h[8:3],,,
{8}5h[4:1],,6,
7,8,1,
{8}2h[4:1],,8,
7,6,5,
{8}4b,3b,2b,
1b,,,
{8}7h[4:1],,6,
5,4,3,
{8}2h[8:3],,,
1,8,7,
{8}6h[4:1],,1,
2,3,4,
{4}5h[2:1],,,
{8}6h[8:3],,,
5h[8:3],,,
{8}4h[8:3],,,
2,1,8,
{8}7h[8:3],,,
5h[8:3],,,
{8}4h[8:3],,,
2h[8:3],,,
{4}8<8[4:5],,,
{4},,,
{8}4h[8:3],,,
7h[8:3],,,
{8}2h[8:3],,,
5h[8:3],,,
{8}7<3[8:3],,,
,,,
{8}2>6[8:3],,,
,,,
{8}1<2[8:3],,,
,,,
{8}8>7[8:3],,,
,,,
{8},1-5[8:7],,
,,,{8},,,
,,,
{8},,,
,,,{8},,,
,,,
{1},,,,,,,,
&inote_5=(100){1},,,,{4},
{4}1>6[2:1],,,
7<3[2:1],,,
{4}2>6[2:1],,,
8<3[2:1],,,
{8}1<5[8:3],2,3,
4,3,,
{8}4<8[8:3],3,2,
1,2,,
{8}8>4[8:3],7,6,
5,6,,
{8}5>1[8:3],6,7,
8,7,,
{16}78,,1,6,2,,
78,,1,6,3,,
{16}78,,2,5,3,,
78,,16,,25,,
{16}21,,8,3,7,,
21,,8,3,6,,
{16}21,,7,4,6,,
21,,38,,47,,
{8}5<2[8:3]/6h[4:1],,,
5,5,5,
{8}4>7[8:3]/3h[4:1],,,
4,4,4,
{8}4qq6[8:6]/5pp3[8:6],,,
,,,
{8},,,
,,,
{8}7,6<2[4:1],5,
4,,,
{8}2,3>7[4:1],4,
5,,,
{8}5,6>2[4:1],7,
8,,,
{8}4,3<7[4:1],2,
1,,,
{8}8,7pp3[4:1],6,
5,,,
{8}1,2qq6[4:1],3,
4,,,
{8}5,6pp3[4:1],7,
8,,,
{8}2h[4:1],,1,
12,7-5[16:1]/8,,
{16}1,,2-4[16:1],1,2,,
8,,7-4[16:1],8,7,,
{16}1,,2-5[16:1],1,2,,
8,,7-4[16:1],6,7,,
{16}1,,2-5[16:1],3,2,,
8,,7-3[16:1],5,7,,
{16}1,,2-6[16:1],4,2,,
7,,48,,26,,
{16}7,,7^5[16:1],5,8,,
2,,2^4[16:1],4,1,,
{16}7,,7-4[16:1],4,8,,
2,,2-5[16:1],5,1,,
{16}7-4[16:1],,,1,7,,
2-5[16:1],,,8,2,,
{16}47,,6,5,6,,
56,,47,,38,,
{8}1h[4:1]/2<4[8:3],,,
1,8,7,
{8}1h[4:1]/4q5[8:3],,,
1h[4:1],,,
{8}8h[4:1]/7>5[8:3],,,
8,1,2,
{8}8/5p4[8:3],8,8,
8h[4:1],,,
{8}5<2[8:3]/6h[4:1],,,
5,6,7,
{8}8<4[4:1],,4,
3,2<6[4:1],3,
{8}6,5,4,
1b/5,2b/6,3b/7,
{16}4b/8,,2,1,38,,
15,,7,8,16,,
{16}2-4[16:1]/7,,1,5,2,,
4-7[16:1]/7,,2-4[16:1]/5,,1,,
{16}2/7-5[16:1],,8,4,7,,
5-2[16:1]/2,,7-5[16:1]/4,,8,,
{16}2-4[16:1]/7,,1,5,2,,
4-7[16:1]/7,,2-4[16:1]/5,,1,,
{16}2/7-5[16:1],,8,4,7,,
52,,7V51[4:1]/4,,8,,
{8}75,2V48[4:1],4,
2/4,7V51[4:1],5,
{8}75,2V48[4:1],4,
2/4,7<3[4:1],5,
{8}75,2>6[4:1],1,
2/4,7,8,
{8}1/5b,2/6b,3/7b,
4/8b,,,
{16}2^4[16:1]/7,,1,5,2,,
4-8[16:1]/8,,2^4[16:1]/6,,1,,
{16}2/7^5[16:1],,8,4,7,,
5-1[16:1]/1,,7^5[16:1]/3,,8,,
{16}2^4[16:1]/7,,1,5,2,,
4-8[16:1]/8,,2^4[16:1]/6,,1,,
{16}2/7^5[16:1],,8,4,7,,
5-1[16:1]/1,,7^5[16:1]/3,,8,,
{16}7/2-4[16:1],,1,6,2,,
7-5[16:1]/4,,8,3,7,,
{16}6/2^4[16:1],,1,8,2,,
7^5[16:1]/3,,8,1,7,,
{16}2-4[16:1],5,1,6,2,,
7-5[16:1],4,8,3,7,,
{16}2^4[16:1],5,8,6,2,,
7^5[16:1],4,1,3,7,,
{16}2>5[8:1]/4,,1,1,28,,
7,,68,,15,,
{16}3pp6[16:7]/7,,2,2,1,,
8^2[16:1],,7,,,,
{16}7<4[8:1]/5,,8,8,71,,
2,,31,,84,,
{16}6qq3[16:7]/2,,7,7,8,,
1^7[16:1],,2,,,,
{8}4h[8:5]/7<3[8:3],,,
,,,
{8}5h[8:5]/2>6[8:3],,,
,,,
{8}1<2[8:3]/8h[8:5],,,
,,,
{8}8>7[8:3]/1h[8:5],,,
,,,
{8},1>7[8:7]/8<2[8:7],,
,,,{8},,,
,,,
{8},,,
,,,{8},,,
,,,
{1},,,,,,,,E
&inote_6=(100)
{1},
{4}7pp5pp3[4:11],,,,,,,,,,,,,
{16}
1h[16:2],,E8,2h[16:2],,5h[16:2],,E4,E7,,,,
3,,4,4,,5,,6,C,,,,
8h[16:2],,E2,7h[16:2],,4h[16:2],,E6,E3,,,,
6,,5,5,,4,,3,C,,,,
5,,5,4,5,E3,5,E2,5,,5,,
5,,65,6,4,5,3,4,1,,4,,
45,,4,5,4,E7,4,E8,4,,4,,
4,,34,3,5,4,6,5,
8<5[32:4],,5p4[32:8],,3h[16:4],,,,,,
3,,2-5[32:3],2,3,,5,,6-3[32:3],6,5,,
3,,1>4[32:4],,4q5[32:8],,6h[16:4],,,,,,
6,,7-4[32:3],7,6,,4,,3-6[32:3],3,4,,
6,,8p4<7[32:8],,4,,2,,3p7>2[32:8],,2,,
5,,6p2>5[32:8],,5,,2,,1<6[32:3],,8,,1>5[32:4]/7,,
,4,1,,
{8}7pp2[16:12],,,E1,,,C,,,
{16}E5,,6>3[32:4],6,3,,
{8}A1,,4,C/A8,,3,C/A7,,2,C/A6,,
1,5,6q4[16:5],4,5q3[16:5],,,,,,18,,
4,A8/C,,5,C/A1,,6,C/A2,,7,C/A3,,
8,4>1[32:4],,7,5<8[32:4],,1,4v3<6b[32:8],
,,6b,8b-4[32:3],5,1,
{16}3<6[32:3],3,4,,7,,8-5[32:3],8,5,,3,,
2pp3[32:5],2,4,,6-1[32:3],,8-3[32:3],,,,,,5,,74,,
6<1[16:2]/1,,3qq8[32:11],3,6,,,,,,6,,5-1[32:3],,1-5[32:3],,,,,,
2>5[32:3],2,5,,2,,1v4[32:3],1,4,,1,,8v5[32:3],8,5,,8,,7<4[32:3],7,4,4,7,,
2-7[32:3],2,3,,2,,6-3[32:3],6,7,,6,,1>4[32:3],,8<5[32:3],,1pp6[32:8],,,,,,8b,,,,,,
3/6hx[16:2],,5h[16:2],,4h[16:2],,3,,3,4,,6,5,,6p5[32:9],,45,,6,,,,
3,,3hx[16:2],,4h[16:2],,5h[16:2],,6,,6,3,4-1[32:3],3,1,,4x/8x,,6pp6[32:7],,43,,,,,,
3hx[16:2],,4h[16:2],,5h[16:2],,6,,7,5,,2,4,,1>4[32:3]/2,,7/8<5[32:3],,1-5[32:3],,
8-4[32:3],,1-6[32:3],,8-3[32:3],,1-4[32:3],,,,,,7,3,5w1[32:4],2,8,,,,,,
3b/7b,,6h[16:1],5h[16:1],4-7[32:3],,2>5[32:3],,1-6[32:3],,,,,,
3h[16:1],4h[16:1],5,,7>2[32:3]/5,,4/3-8[32:3],,7,,3,,
6h[16:1],7h[16:1],8h[16:2],,3<6[32:3],,1h[16:1],2h[16:1],3,,8-4[32:3],,
6<3[32:6],5,8,,,,,,6,5,
7,,1>5[32:4]/8,,3/4,,6x,,8>4b[32:4],,32,,5x,,
7>3[32:4],,12,,4x,,5-1[32:3],,64,,
8x,,7<5[32:2]
,2,5-8[32:3],,73,,1>4b[32:3],,
4-1b[32:3],,1b-5b[32:3],,5b<8b[32:3],,8b,,6b,,,,3,5,
6b/2b,,3h[16:1],4h[16:1],5p1[32:3],,7<4[32:3],,8v3[32:3],,,,,,
6h[16:1],5h[16:1],4<6[32:2],,3q7[32:3],,2<8[32:2],,,,,,
7<4[32:3],1,8>3[32:3],,7-3[32:3],,8-4[32:3],,,,,,
6-3[32:3],5,7,,61,,2<6[32:4],4,1,,26,,4-7[32:3],4,3,,
1,,8-3[32:3],8,7,,5,,4qq7b[32:8],4,3<6b[32:4],,2,,,,,,
7-2[32:2],1,5,3,7,,3-6[32:3],5,1,7,3,,8q2[32:7],4,6>7b[32:8],2,8,,,,,,,,
8-5[32:3]/5,,36,,85,,3h[16:2],,4,4,2h[16:2],,8h[16:2],,5-7[32:3],5,7-3[32:3],,3-8[32:3],,,,,,
4-1[32:3],,27,,41,,6h[16:2],,5,5,7h[16:2],,1h[16:2],,4-2[32:3],4,2-6[32:3],,6-1[32:3],,,,,,
5h[16:2],,3,6,4h[16:2],,3h[16:2],,1,4,2h[16:2],,4,3,1,3,4h[16:2],,5>2[32:3],,6,6,5,,7h[16:2],,1,1,B7,,3,4,2,4,B1,,6,5,7,5,8,8,
3,3,{12}4x,5x>2v1v8<5b[16:20],6x,7x,,,
