&title=Distorted Heavens
&artist=Juggernaut.
&first=0.232
&des=Doraemon Television
&lv_5=14
&inote_5=(200)
{32},,,,,,,,7bv8-3[2:1]*v6-3[2:1],6/8,1/5,2/4,3,,,,,,,,,,,,
{8},,,,,1>8[8:12]/C1h[8:22],,,
{1},
{8},,,,,1-7v5-3[8:3],,,
{16},,,,,,,,,,7-3[8:1],,6,,7,,2,,
{16}1,8,1,8,1-5[8:1],,2,,1b/7/C1f,,,,6<8[8:1]*v1[8:1],,
{16},,6b,,,,4,,4,,3/5,,2,,1-5[8:1]*>4[8:1]/7,,
{16},,1b,,,,8,,7/1,,2,8,3,7,4,6,
{16}2,8,1,7,4,6,3,5,1,8,2-6[8:1],,,,2,,8V64[8:1],
{16},,,8,,1w5[8:1],,,,1b<3[8:11]/C1f,,,,,,
{8},,,,,2,,1,,
{8}8,,7,,4/6,6,4/7,7,
{8}4/8,8h[8:1],,4,8/3,3,7/2,2,
{8}6/1,1,5/8-4[8:1],,8>6[8:11]/1,,7,,
{8}7,,7,,8,,1,,2,,3,,6/4,4,5/3,5,
{16}3/4,,2,,5/6,,7,,2x,1,3,8,4,7,5,6,
{16}1x,5,1,6,2-6[8:1],7,2,8,2b,,,,,,7h[4:1]/5h[4:1],,
{16},,,,2,1,2,,3h[4:1]/5h[4:1],,,,,,4h[4:1]/6h[4:1],,
{16},,,,7,8,7,,1h[4:1]/3h[4:1],,,,,,2h[4:1]/8h[4:1],,
{16},,,,4,5,4,,7h[4:1]/1h[4:1],,,,,,6h[4:1]/8h[4:1],,
{16},,,,5,4,5,,2pp6[2:1]/6,,6,,7,,7,,
{16}8,,8,,1qq5[2:1]b,,1,,5,,5,,4,,4,,
{16}3,,3,,2,,2,,1,5,1,5,2,6,2,6,
{16}3,7,3,7,4-8[8:1],8,4,8,4bv5-7[4:1]*v3-1[4:1],,,,,,,,
{8},,8-4[8:1]b,,{32}4b/A8f,3,2,1,,,,,2hx[16:1]/6x,,,,2h[16:1],,,,
{8}2h[16:1]/7,2h[16:1],2h[16:1]/8-4[8:1],2h[16:1],2h[16:1]/8-6[8:1],2h[16:1],2h[16:1]/8v5[8:1],2h[16:1],
{8}2h[16:1]/8<6[8:1],2h[16:1],2h[16:1]/8-4[8:1]*-2[8:1],,8b,,5/3,5,
{8}6/4,6,7/5,7,8-4[8:1]/4,,4-8[8:1],,
{8}8-4[8:1],,4w8[8:1],,,,6h[16:1]/3,6h[16:1],
{8}6h[16:1]/2,6h[16:1],6h[16:1]/1-5[8:1],6h[16:1],6h[16:1]/1-3[8:1],6h[16:1],6h[16:1]/1v4[8:1],6h[16:1],
{8}6h[16:1]/1>3[8:1],6h[16:1],6h[16:1]/1-7[8:1]*-5[8:1],,1b,,4/6,4,
{8}3/5,3,4/2,2,1-5[8:1],6,1,7,7-3[8:1]b,4,7<4[8:1]*>2[8:1],,7b,,{16}7,8,7,1,
{16}7,2,7,3,7-5[8:1],4,7,5,7-3[8:1],,4,,7<5[8:1],,4,,
{16}7v4[8:1]b,,3,,7-5[8:1]*-2[8:1],,,,7b,,,,1/4,,1,,
{16}2/5,,2,,3/6,,3,,4-8[8:1]/7,,,,4>1[8:1]*-6[8:1],,
{16},,4-8[8:1]b,,,,4,,,,{32}1b/7b,2/6,3/5,4,,,,,3,,4,,3,,5,,
{16}3,6,3,7,3-5[8:1],8,3,8,3-7[8:1],,7,,3<5[8:1],,6,,
{16}3v8[8:1]b,,7,,3-6[8:1]*-1[8:1],,,,3b,,,,7/5,,7,,
{16}6/4,,6,,5/3,,5,,4-8[8:1]/2,,1,,4,,
{16}2,,2-6[8:1],,5,,2-5[8:1]*>5[8:1],,,,2b,,,,8-4[8:1]b,,,,8bqq5[8:5]/3h[16:1],,
{16}3h[16:1],,3h[16:1],,3h[16:1],,3h[16:1],,3h[16:1],,3>8[8:1],,3,,3b,,
{16}6,,7v4[8:1],,8,,7/1,,2,,3xv8[8:1]b,,3,,3/5,,6,,
{16}7x-5[8:1]*-4[8:1],,7,,7-1[8:1]*-2[8:1],,,,7-3[8:1],,,,7,,
{16},,1>4[8:1],,,,{32}1/5b,6,7,8,,,,,{16}4x-8[8:1]b,,,,4bqq1[8:5]/7h[16:1],,
{16}7h[16:1],,7h[16:1],,7h[16:1],,7h[16:1],,7h[16:1],,7<4[8:1],,7,,7b,,
{16}2,,3v8[8:1],,4,,3/5,,6,,7xv4[8:1]b,,7,,7/1,,
{16}2,,3x-8[8:1],,3,,3-5[8:1],,6,,3-7[8:1]b,,7,,3,,
{16},,8<5[8:1],,,,{32}8/4b,3,2,1,,,,,8/7,,,,1,,,,7x,,1,,
{16}7,2,7,3,7,4,7,5,8x,6,8,7,8,1,8,2,
{16}8,3,8-4[8:1],4,8,5,8b,,,,1-5[8:1],,2,,1/5-1[8:1],,
{16}6,,1-5[8:1],,2,,1x-7[8:1]*-6[8:1],,,,1-3[8:1]*-4[8:1],,,,1-5[8:1],,
{16},,1w5[8:1]b,,,,1b,,,,2/8,,7,,2,8,
{16}2,7,2,6,2,5,2,4,1x,3,1,2,1,8,1,7,
{16}1,6,1-5[8:1],5,1,4,1b,,,,7/8,,5,,1/2,,
{16}4,,7/8,,1/6,,2/5-1[8:1],,3,,5,,4,,5-1[8:1]b,,
{16}7,,5,,6,,5pp1[2:1],,,,2-4[8:1]b,,,,A2f,,
{16},,3V52[8:1],,,,3/7,,,,3x>8[8:1]/8<5[8:1],,,,3b/8bV24[8:1],,
{16},,6,,,,{32}6pp4[2:1],,,,,,,,{16}3-1[8:1]b,,,,A3f,,
{16},,8V61[8:1],,,,8/5,,,,6<1[8:1]/8x,,,,{32}1b/6b,2,3,4,
{16},,2-5[8:1]*-6[8:1],,,,2bpp1[2:1],,,,7x<5[8:1]b,,,,A7f,,
{16},,4-8[8:1],,,,4/2,,,,3V17[8:1]/7-5[8:1],,,,7bv2[8:1]/3b,,
{16},,4,,,,4pp7[2:1],,,,8-2[8:1]b,,,,A8f,,
{16},,3v8[8:1],,,,3/5,,,,5v8[8:1],,,,{32}5b/8b,1,2,3,
{16},,4>5[8:12],,,,C1h[8:22],,,,,,,,,,
{1},
{8},,,1-7v5-3[8:4],,,,,
{16},,,,,,6-2[8:1],,5,,6,,1,,8,7,
{16}8,7,8-4[8:1],,1,,6/8b/C1,,,,5<8[8:1]*-2[8:1],,,,5b,,
{16},,1,,8,,1/7,,8,,1-5[8:1]/2-6[8:1],,,,2b/1b,,
{16},,7,,4,,2,1,3,8,4,7,5,6,1,7,
{16}2,8,4,6,3,5,4V28[8:1],,,,4,,6-2[8:1],,,,
{16}6,,1z5[8:1]*s5[8:1],,,,{32}1bV35V71[8:12]b,B1,C1f,B5,{2},
{1},
{8},,,7<4[2:1],,,,B1/B2,
{8},,,3>8[2:1]b,,,,B5/B6,
{8},,,7V15[2:1],,4,,3x,
{8},2,,2V48[2:1]b,,7,,6x,
{8},5,,5V73[8:3],,3,,2hx[16:1],
{8},1,,1V37[8:3]b,,7,,6hx[16:1],
{8},5-1[8:1],,5b,,3,4,,
{8}3/5,,7-4[8:1],,7,,2,4,
{8}3,5,3,2>4[8:1]/6,,2,6,,
{8}5/7,,8,7x/5x,7<4[8:1],,7x/1x,,
{8}8-4[8:1],,8,6x,,7,8,,
{8}3/1,,2>5[8:1],,2,,8,5,
{8}7,4,6,5/3-1[8:1],,3,4,,
{8}1/7,,2x/8x-4[8:1],,2,,5x/2x-6[8:1],,
{8}6,7,8,1xh[4:1]/5xh[4:1],,,
{8}2h[4:1]/4V26[4:1],,
{8},,,1h[4:1]/7h[4:1],,,6h[4:1]/8V62[4:1],,
{8},,,3h[4:1]/8h[4:1],,,1h[4:1]/7V15[4:1],,
{8},,,6h[4:1]/4h[4:1],,,5h[4:1]/3V51[4:1],,
{8},,,7qq4[2:1],8,1,1,2,
{8}2,3qq8[2:1]b,3,4,4,5,5,6,
{8}6,7,7,{16}4,8,3,7,2,6,1,5,8,7,
{16}4,5,1-5[8:1],7,3,5,1bs5-7[4:1]*-5-3[4:1]b,,,,,,,,,,
{32},,,,4w8[8:1]b,,,,,,,,4b/C1f,,,,,,,,1x,,,,2/8,,,,3,,4,,
{16}2,,8<5[8:1],,4,,8-4[8:1],,3,,8,,2,,7,8,
{16}7,,1-5[8:1],,2,,1/5,,6,,3,4,3,,5,,
{16}1/6,,7,,2,1,2-5[8:1],,3,,2/8-4[8:1]b,,7,,1/8,,
{16}2,,1-5[8:1]/5,,6,,1b/7,,,,8,,1/2,,6,5,
{16}7,,1>4[8:1],,5,,1-5[8:1],,6,,1,,7,,2,1,
{16}2,,8-4[8:1],,7,,8/4,,3,,6,5,6,,4,,
{16}3/7,,2,,8-6[8:1]*-5[8:1]b,,,,8-2[8:1]*-3[8:1]b,,,,8-4[8:1],,,,
{16}8,,2-6[8:1],,5,,2b/6,,,,7,,5/8,,2,1,
{16}3,,5<8[8:1],,4,,5-1[8:1],,3,,5,,2,,6,5,
{16}6,,4-8[8:1],,3,,4/5,,6,,7,1,8,,2,,
{16}3/1,,8,,5,4,5-1[8:1],,6,,5/4v7[8:1]b,,3,,4/7,,
{16}8,,1-5[8:1],,2,,3/1b,,,,4,,2/5,,7,8,
{16}7,,3>8[8:1],,7,,3-7[8:1],,6,,3,,5,,2,4,
{16}2,,5-1[8:1],,3,,4b/5,,3,,7,5,6,,4,,
{16}3/5,,6,,2-4[8:1]*-5[8:1]b,,,,2-8[8:1]*-7[8:1]b,,,,2-6[8:1],,,,
{16}2,,8<1[4:1]b,,5,,8x,,,,,,3x-8[8:1],,,,
{16}3b/5-1[8:1],,,,5b/2V46[8:1],,,,2b/8,,,,7,8,7b-3[8:1],,
{16}7b,,1bw5[8:1],,1b,,1b/C1f,,,,7,8,7,,1
,,
{16}2/5,,3,,6,5,6-1[8:1],,7,,6/2>5[8:1]b,,3,,2/8,,
{16}1,,1V75[8:1],,4,,3/1b,,,,2,,1/4,,6,5,
{16}6,,2-6[8:1],,5,,2V84[8:1]b,,7,,2,,6,,5V73[8:1],,
{16}2,,1-5[8:1]b,,2,,1/5,,7,,3,4,3,,5,,
{16}7/4,,8,,1-5[8:1]/2-4[8:1],,,,2-6[8:1]/1-7[8:1],,,,1-5[8:1]/2,,,,
{16}1/4,,3V17[8:1]b*-8[8:1],,6,,3b/5,,,,6,,4/7,,2,1,
{16}3,,6-2[8:1],,1,,6V84[8:1]b,,3,,6,,2,,3V51[8:1],,
{16}8,,7v4[8:1]b/3,,6,,7/8,,2,,6,5,6,,4,,
{16}5/2,,1,,8,7,8>3[8:1],,1,,4-7[8:1]b/8,,5,,4/1,,
{16}2,,2V46[8:1],,8,,1/2b,,,,8,,2/7,,5,4,
{16}6,,1-5[8:1],,6,,1V73[8:1]b,,4,,1,,5,,5V73[8:1],,
{16}4,,5/1-5[8:1]b,,2,,6/1,,8,,3,4,3,,5,,
{16}2/6,,1,,8b-4[8:1],,,,8b/6-1[8:1],,,,6b/3-7[8:1],,,,
{16}3b,,5b-1[8:1],,6b,,5bv6-1[1:1]*v4-1[1:1]b/1b/C1f,,,,,,,,,,
{1},
{8},,,1s5[2:1],,,,6,
{8},,,7s3[2:1],,,,4,
{8},,,1V35[2:1],,6,,5x-1[2:1],
{8},8,,1V73[2:1],,7,,6x,
{8},5,,4/6,5,2/4,3,1/7,
{8}8,1/3,2,6-2[8:1],,6,4-8[8:1],,
{8}4,5<4[1:2],,E3f,,,,,,
{1},
{1},
E
