&title=神鸣
&artist=Rígr feat. 光吉猛修
&first=0.84
&des=SnowFox
&lv_5=14+
&inote_5=(205)
{32}1b,28,37,4>6[32:38]b/6,5bxh[32:45],,,,,,,,,,,,{8},,,,,,,,,,,,
{4}4-1[4:7],,,,,,,,8h[8:7],,{8},E2,B2,B3,,,,,,7,3,6,5-8[4:7]b/4,,,,,,,,,,,,,,,,E2/B1/B2,,,,,,,,7h[4:1],5,3,6h[4:1],4,2,15,,
{32}2b/Cf,3,4,5,6,7,8,1,2,3,4,5,6,7,8,1,2,3,4,5,6,7,8,1,2,3,4,5,6,7,8,1,2,3,4,5,6,7,8,1,2,3,4,5,6,7,8,1,2x,3x,4x,5x,6x,7x,8x,1x,2x,3x,4x,5x,6x,7x,8x,1x,A2,A3,A4,A5,A6,A7,A8,A1,D1,D2,D3,D4,D5,D6,D7,D8,E1,E2,E3,E4,E5,E6,E7,E8,B8,B1,B2,B3,B4,B5,B6,B7,B8f/Ch[4:1],,,,,,,,{4},{16}1,2,3,,5,,5,,3bx/4bx,,3,,3,,4,2,,2,4,,3,,3,,6bx/5bx,,6,,6,,5,7,,7,5,,6,,6,,4bx/5bx,,3,,2,,1,,7bx,8,6,1,5,2,4,3,5-1[8:1],,,,5>2[8:1]/1<6[8:1],,,,,,,,1b/5b,,,,{8}7h[8:1],5,6h[8:1],4,5h[8:1],3,24,24,1h[8:1],3,2h[8:1],4,35,35,{16}4,6,4,6,5-3[8:1],,5,,7-5[8:1],,7,,2-6[8:1],,2,,8,,8,,7-1[8:1],,7,,3,,3h[8:1],,4,5,6,,17,,17,,{8}2h[8:1],4,3h[8:1],5,4h[8:1],6,75,75,8h[8:1],6,7h[8:1],5,64,64,{16}5,3,5,3,4-6[8:1],,4,,2-4[8:1],,2,,7-3[8:1],,7,,1,,1,,{16}4,5,6,7,1<5[4:1]b,2,3,4,5bpp5[4:1]b/1b,,,,2b,,,,
3,,3h[8:1],,4,,4h[8:1],,1,,1,,82,,82,,6,,6h[8:1],,5,,5,,64,,64,,5,3,5,3,4-7[8:1],,4,,2-5[8:1],,2,,8-4[8:1],,8,,1,,1,,2-6[8:1],,2,,7,,7h[8:1],,5,4,3,,28,,28,,
6,,6h[8:1],,5,,5h[8:1],,8,,8,,17,,17,,3,,3h[8:1],,4,,4,,35,,35,,4,6,4,6,5-2[8:1],,5,,7-4[8:1],,7,,1-5[8:1],,1,,8,,8,,4,3,2,1,7,6,5,4,2,1,2,,3x/8x,,4x/7x,,5x-1[4:5]/6xz2[4:7]b,,,,{8},,,,,,,,,,,,,,8h[4:4],,,,,4,,,4w8[4:2],,,,,,,,
{16}2b,1b,2b,1b,2bV48[4:1]b,,,,24,,5,,6x,,,,7b,1b,7b,1b,7b-3-5[4:1]b,,,,78,,1,,2x,,,,6,,3,4,2,,6,4,5,,34,,34,,,,2,,6,5,7,,3,5,4-2[8:1]*-1[8:1],,65,,,,,,7b,8b,7b,8b,7bV51[4:1]b,,,,75,,4,,3x,,,,2b,8b,2b,8b,2b-6-4[4:1]b,,,,21,,8,,7x,,,,6,,2,4,3,,7,5,6,,43,,54,,56,,7h[16:1],4,,6h[16:1],3,,5h[16:1],2h[16:5],,,1b,,1b,,,,8,7,6,5,34,5,6,7,81,7,6,5,34,5,6,7,81,7,6,5,43,5,6,7,8-4[8:1]/1h[16:1],,1h[16:1],,1h[16:1],,1h[16:1],,2,3,4,5,67,5,4,3,21,3,4,5,67,5,4,3,21,3,4,5,67,5,4,3,2-5[8:1]/8h[16:1],,8h[16:1],,8h[16:1],,8h[16:1],,7,6,5,4,32,4,5,6,73,8,1,2,37,4,5,6,73,6,5,4,73,2,1,8,7-4[8:1]/5h[16:1],,5h[16:1],,5h[16:1],,5h[16:1],,31,,28,,17,,86,,75,,64,,3,5,2,4,1,2,7,6,2,3,6,5,4b,4b,4b,,3>1-5b[4:1]/5,,17,,3/5<7-3b[4:1],,,,,,,,{32}8b,B8f,,,,,,,{4},
{8}35,,7/8-5[8:1],1,2/8>3[8:1],,8qq5b[4:2],,,,,,{32}2b,B2f,,,,,,,{8},,{16}7,8,6,1,7,8,6,1,5,2,4,3,5<1<5[4:2]b,2,4,3,,,,,,,,,{32}
4b,B4f,,,,,,,{8},,7h[4:1]/2,,{16}6,5,4,3,2<7[8:1]/7,,,,5V71[8:2]/2v5[8:2],,,,,,,,,,,,3bx/7bx,2bx/6bx,1bx/5bx,,84,,84,,{12}1,3,2,7,5,6,3,4,2,7,6,8,2b/1bs5[4:14],,,,,,,,,,,,{1},{4}
1b-7-3-5b[4:5],,,,,,,,{12}3b,2,1,7,6,5,3,2,1,6,5,4,2b,3,4,6,7,8,2,3,4,7,8,1,3b,4,5,68,7,6,5/2b,3,4,51,8,7,6/8b,1,2,3/6b,5,4,3/2b,2,2,8b,8,8,6b-4-7-3[8:3],,,,,,,,,E1f/B8/B1/A8/A1,,,12,38,47,3b-6[8:1]b/8b,,,3b/7b-2[8:1]b,,,3b>8[8:1]b/7b,,,3b/7b,,,3b/5b,,56,47,38,12,3b/8b,,,1b/6b,,,87,16,25,1b/6b-3[8:1]b,,,1b-4[8:1]b/6b,,,{12}8b/1b,7,6,54,3,2,E7,E5,E1,E3f,,,15,26,37,{32}4b/8b,5,6,7,8,1,2,3,4/8-4[8:1]b,,,,,,,,{12}8b/3b,,3,2b/5b,1,8,1b/7b,6,5,{32}4b/8b,7,6,5,4,3,2,1,{12}84,4,4,3h[4:1]/5,,,7,7,7,{32}8b/6b,1,2,3,4,5,6,7,{12}85,5,5,3b,4,2,6b,5,7,{24}1b,2,3,8,7,6,2b,3,4,7,6,5,{16}2bh[8:1]/4h[8:1],,,2bh[8:1]/4h[8:1],,,2b/4,,{24}3x,4,5,6x,5,4,{16}1bh[8:1]/3h[8:1],,,1bh[8:1]/3h[8:1],,,1b/3,,{24}2x,3,4,8x,7,6,{16}3,3,5,5,1,1,7,7,{32}8b/6b,1s5[4:5]b/5,2v3-5[4:5]/4,3,,,,,,,,,,,,,{4},,,,,,
Chf[2:16]/B7/3h[4:6],,,,,,,,2h[4:6]/B6,,,,,,,,4h[4:6]/B8,,,,,,,,8V24[4:5]/B4,,,,,,,,,,,,{8}4,4,5,3,6,6,5,7,8x/4hx[8:2],,7,6,5,4,3,2,5<8[8:2],,1,,2>5[8:2],,8,,7h[4:1],,5,4,3,2,1,8,7<4[8:2],,3,,2<7[8:2],,6,,6hx[4:1],,2,3,4,5,6,7,8-4[8:2],,1,,2-5[8:2],,6,,7h[4:1],,5,5h[4:1],,3,3<8[4:2],,,,1,1,1,1,1,1,2b>8[4:5]/8b<2[4:5],,,,,,,,,,,,,,,,3h[4:1]/7h[4:1],,,,{16}6,4,6,4,6,4,6,4,5-1[8:1],,,,3<7[4:1]*q8[4:1],,,,,,,,,,,,{8}1h[8:1]/2h[8:1],,2h[8:1]/3h[8:1],,3h[8:1]/4h[8:1],,4h[8:1]/5h[8:1],,5h[8:1]/6h[8:1],,6h[8:1]/7h[8:1],,7h[8:1]/8h[8:1],,1h[8:1]/8h[8:1],,24,24,35,35,46,46,57,57,{16}4,8,4,8,5,1,5,1,{32}4,3,2,1,8,7,6,5,4,3,2,1,8,7,6,5,4bh[4:4]/B7f/B8/E8/E1/E7/A7/A8/D8,,,,,,,,{8},,,,,,{32}8,7,6,5,1,2,3,4,7,6,5,4,8,1,2,3,6,5,4,3,7,8,1,2,3b/5b,,,,,,,,{16}2b,1,4,5,2b,1,4,5,1b,8,5,6,1b,8,5,6,7b-3[8:1],8,1,2,73,,1,,25,,47,,38,,16,,7b,8,5,4,7b,8,5,4,8b,1,4,3,8b,1,4,3,2b-6[8:1],1,8,7,26,,8,,74,,3,5,2,4,2,4,1-5[8:1]/3-8[8:1],,13,,13,,,,47,,36,,25,,1h[4:1]/4,,,,3,,82,73,4/6-2[8:1],,1-5-3[4:1],,6,,1,,8,,8h[8:3],,,,,,2,1,87,,7,,5,6,5,6,4-7[8:1],,3,,2/4-1[8:1],,3,,6/4-8[8:1]b,,5,,2/4b,,,,1b,2,37,4,5/1b,8,73,6,1b/5,2,37,4,5/1b,8,73,6,1b-5[8:1]/5,2,37,4,1/5,,3,,28,,17,,25,,47,,6b,7,84,1,2/6b,5,48,3,2/6b,7,84,1,2/6b,5,48,3,2/6b-2[8:1],7,84,1,2/6,,8,,6h[4:1],,4,,3,5,3,5,2x-5[16:1]/4x,,,8x-4[16:1]/2x,,,1h[8:5]/8x,,,,5,,5,,5,,4,3,2,1,84,7,6,5,24,,24,,3-1[8:1]/5-1[8:1],,46,,,,,,,,,,2b-6[8:1]b/8b,7b/3b,4b/6-3b[8:1]b,,2bx,,5bx,,4-8[8:1],,4,,1-5[8:1],,1,,7-3[8:1],,7,,2,,2,,E2,E1,E8,E7,E6,E5,E4,E3,E2f/A1/D2/A2/4<8[4:1],,,,,,,,3h[4:1],,,,8,,8,,1-4[8:1]/7,,,,71,,,,6,,,,6,,,,6/5x>1[4:1],,,,8,7,6,5,4,,,,4,,,,1-4[8:1]/5-8[8:1],,,,1b/5b,,,,2q6[8:1],,,,1-5[8:1],,,,8-4[8:1],,,,7p3[8:1],,,,2q6[8:1],,,,2/1-5[8:1],,,,1/8-4[8:1],,,,8/7p3[8:1],,,,17,,1,,25,,2,,36,,6,,47,,7,,5,8,4,7,3,6,2,5,{32}1x,8,7,6,5,4,3,2,1,8,7,6,5,4,3,2,{16}1b,1b,1b,1b,1b,1b,1b,1b,1b-5[8:1]b,1b,1b,1b,1b,,,,3,4,2,7,8,5b,,,6,5,7,2,1,4b,,,7,8,{32}6-3[8:1],5,4,3,2,1,8,7,{16}6,,{12}1,1,5,3,3,7,{24}4,3,2,17,8,1,24,3,2,71,8,1,2,4,5,6/8,7,6,{32}15,2,3,4,57,6,5,4,3hx[16:24]/2hx[16:24],,,,,,,,,,,,{8},,,,,,,,,,,,,A6/E6/B5/B4/E4/A3/D7/E7/Cf/B6/B3/E3/D3/B7/B2/A7/A2/D8/E8/B8/B1/E2/D2/A8/D1/E1/A1,
