&title=阿呦阿呦
&artist=闪闪
&first=-0.06
&des=Rr
&des_5=Rr
&lv_5=12+
&inote_5=(152){4},{16},,,8-4b[2:1],,8,,8,,,,,,,,,,,,1-3b[2:1]/7-5b[2:1],
,7/1,,7/1,,,,,,,,,,,,8-4b[2:1],
,8,,8,,,,,,3x>3[4:1],
,,,,,,,,,,,,,5b/2b,
,4bpp3[4:1]/7bpp8[4:1],,5b/2b,,4b/7b,,,,,,7,,6,,5,
,4/3,,,,1/2w6[8:1],,,,2b,,,,,,4b/7b,
,5bqq6[4:1]/2bqq1[4:1],,4b/7b,,5b/2b,,,,,,2,,3,,4,
,5/6,,,,8/7w3[8:1],,,,7b,,,,,,1b/6b,
,8bpp7[4:1]/3bpp4[4:1],,1b/6b,,8b/3b,,,,,,3,,2,,1,
,8/7,,,,5/6w2[8:1],,,,6b,,,,,,8b/3b,
,1bqq2[4:1]/6bqq5[4:1],,8b/3b,,1b/6b,,,,,,6,,7,,8,
,1/2,,,,3/4w8b[32:1],,,,4b/Cf,,,,,,7b/3b,
,1b/5b,,3b/7b,,5b/1b,,4-1[8:1]*-1[8:1],,4,,5-8[8:1]*-8[8:1],,5,,4-1[8:1]*-1[8:1],
,4,,,,5,,5w1[8:1],,,,5b,,,,1b/5b,
,7b/3b,,5b/1b,,3b/7b,,6-1[8:1]*-1[8:1],,6,,5-2[8:1]*-2[8:1],,5,,6-1[8:1]*-1[8:1],
,6,,,,5w1[8:1],,5,,5b,,,,,,8b/4b,
,2b/6b,,4b/8b,,6b/2b,,3v8[8:1]*v8[8:1],,3,,4<7[8:1]*<7[8:1],,,,3v8[8:1]*v8[8:1],
,3,,,,4,,4w8[8:1],,,,4b,,,,1b/5b,
,7b/3b,,5b/1b,,3b/7b,,6p1[8:1],,6,,5>2[8:1],,,,6p1[8:1],
,6,,,,5,,5w1[8:1]*w1[8:1],,,,5b/Cf,,,,,,,,2v5[8:1],
,2,,,,4v7[8:1],,4,,,,6v1[8:1],
,6,,,,8h[4:1],,,,1,,,,,,4/5,
,,,7v4[8:1],,7,,,,5v2[8:1],,5,,,,3v8[8:1],
,3,,,,1h[4:1],,,,8,,,,,,8/1,
,,,3v8[8:1],,3,,,,1v6[8:1],,1,,,,7pp4[8:3],
,7,,,,5h[8:3],,,,,,,,5/3,,4/2,
,3/1,,2/8,,1/7,,8/6,,7/5,,6/4,,5/3,,4/2,
,3/1,{32},,2x,1x,8x,7x,6x,5x,4x,3x,,,,,,,,,{16}3/5-7[32:3],,,,2,
,,,4/5-7[32:3],,,,2,,,,3/5-7[32:3],,,,1,
,1h[4:1],,5-7[32:3],,,,,,,,4/6-8[32:3],,,,3,
,,,5/6-8[32:3],,4,,,,3,,2h[8:1]/8h[8:1],,,,2h[8:1]/8h[8:1],
,,,3h[8:1]/4h[8:1],,,,3h[8:1]/4h[8:1],,,,6/4-2[32:3],,,,7,
,,,5/4-2[32:3],,,,7,,,,6/4-2[32:3],,7,,,,8,
,4-2[32:3],,7,,,,,,5/3-1[32:3],,,,6,
,,,4/3-1[32:3],,5,,6,,7,,7h[8:1]/1h[8:1],,,,7h[8:1]/1h[8:1],
,,,6h[8:1]/5h[8:1],,,,6h[8:1]/5h[8:1],,,,3/5<7[32:3],,,,2,
,,,4/5<7[32:3],,,,2,,,,3/5<7[32:3],,,,1,
,1q3[32:7],,5<7[32:3],,,,,,,,6v8[8:1]/4v2[8:1],,,,,,,,5h[8:1]/6v8[8:1],
,,,4,,3,,2h[8:1]/8h[8:1],,,,2h[4:1]/8h[4:1],
,,,,,2/8,,,,,,6/4>2[32:3],,,,7,
,,,5/4>2[32:3],,,,7,,,,6/3>1[32:3],,7,,,,8p6[4:1],
,3>1[32:3],,,,,,,,B6/C/B5/E6,,,,C/B7/E8/B8,
,,,B1/E2/B2/C,,B3/B4/E4/Cfh[8:3],,,,,,B7/A6/D6/A5/D5/A4/D4/A3/A2/A1/D1/A8/D8/A7/D7/E6/E5/E4/E3/E2/E1/E8/E7/B6/B5/B4/B3/B2/B1/B8/D2/D3,,,,,,,,,,,,,,,,,,,,5b/2b,
,4bpp3[4:1]/7bpp8[4:1],,5b/2b,,4b/7b,,,,,,7,,6,,5,
,4/3,,,,1/2w6[8:1],,,,2b,,,,,,4b/7b,
,5bqq6[4:1]/2bqq1[4:1],,4b/7b,,5b/2b,,,,,,2,,3,,4,
,5/6,,,,8/7w3[8:1],,,,7b,,,,,,1b/6b,
,8bV27[16:3]/3b-6[8:1],,1b/6b,,8b/3b,,,,,,3,,2,,1,
,8/7,,,,5/6w2[8:1],,,,6b,,,,,,8b/3b,
,1bV72[16:3]/6b-3[8:1],,8b/3b,,1b/6b,,,,,,6,,7,,8,
,1/2,,,,3/4w8b[32:1],,,,4b/Cf,,,,,,7b/3b,
,1b/5b,,3b/7b,,5b/1b,,4v1[8:1]*v1[8:1],,4,,5<8[8:1]*<8[8:1],,5,,4v1[8:1]*v1[8:1],
,4,,,,5,,5w1[8:1],,,,5b,,,,1b/5b,
,7b/3b,,5b/1b,,3b/7b,,6<1[8:1]*<1[8:1],,6,,5-2[8:1]*-2[8:1],,5,,6<1[8:1]*<1[8:1],
,6,,,,5w1[8:1],,5,,5b,,,,,,8b/4b,
,2b/6b,,4b/8b,,6b/2b,,2v7[8:1]*v7[8:1],,2,,3-6[8:1]*-6[8:1],,,,2v7[8:1]*v7[8:1],
,2,,,,4,,4w8[8:1],,,,4b,,,,1bv3[8:1]/5bv7[8:1],
,3b>7[8:1]/7b<3[8:1],,1b/5b,,,,,,,,4/6,,5/7,,6/8,
,7/1,,8/2,,3/1,,2/4w8[8:1]*w8[8:1],,3/5,,4b/Cf,
E
