&title=蜘華室
&artist=Inagi
&first=0
&des=三角 初華
&lv_5=14
&inote_5=(181)
{1},
{16},,,,,,,,,,,,,,,,
{16}3p7[2:1],4,,,,,,,,7p3[2:1],,,,,,,
{16},,,6z2[16:9],,,,,,,,,1h[8:13],,,,
{16},,,,,3q6[1:1],,,,,,,,,,,
{16},,,,,,,2p7[1:1],,,,,,,,,
{16},,,,,,,,,,6p4[1:1]*<3[4:7],,,,,,
{16},,,,,,,,,,,,,,,,
{16},,,,,,,,,,,,,2bV86[8:3]/7bV53[8:3],,,
{16},,,,,,,,,,,,1^4[32:5],,,,
{16},{32}5bpp1[16:7],6,7,8h[96:57],{16},{12},,,,,,,2bV46[8:3]/7bV13[8:3],,
{16},,,,,,,,,,,,,7p3[32:5],,,
{16},,{32}3bqq7[16:7],2,1,8h[96:57],{16},,,{12},,,,,,{16}2^5[8:1]/6,
{16},,,1w5[8:1],,,,1b,,,,,3/7^4[8:1],,,,
{16}8w4[8:1],,,,8b,,,,2^7[16:3]/6,,,,,,{32}6,5,4,3,
{16},,1/5^8[16:3],,,,,,{32}2,3,4w8[8:1],5,{16},,,4b,,,
{16},2/6-2[8:1],,,,2/6b,,,3-7[8:1],,,,4b-8[8:1],4,,,
{16}5b-1[8:1],5,,,6b-2[8:1],6,,,8bw4[8:1],,,8bpp6[1:1],,,,,
{16},,,,,,,,,,,,,,,1^4[8:1],
{16},,,1b^6[8:1],,,1bq5[8:1],,,1b,,,,,,,
{16}4p3[8:5]/7pp6[8:5],,,,,,,,,,,,,,,,
{16},4h[8:1]/2h[8:1],,,4/2,,,5,,{24}6h[8:1]/4h[8:1],,,,,6/4-1[8:1],{16},,,
{16},,,,5,3,6,4pp5[8:6]*qq3[8:6],7,3,,,,,,,
{16},,,,,,,,,,,{24}1h[8:1]/7h[8:1],,,,,17,{16},
{16},,4,6,3,5,2,4,1,4,2,5,3,6,4,7,
{16}3,8^5[8:1],2,7,1,8b^3[8:1],,,8bp4[8:1],,,8b,,,,,
{16},,,,1,,2h[4:1]/8h[4:1],,,,,,2/8V63[2:1]*q2[2:1],,,,
{16},,,,,,,,,,,1-4[8:1]/4h[4:1],,,,1,
{16},,6,,7/3,,8,,8,3,7,2,6,1,5,8,
{16}4,3,,,,2h[8:3]/4q5[16:7],,,,,,,{24},,2pp1[8:3],{16},,
{16},,,,,,6,,5,,2,4,3,4,2-6[8:1],,
{16},,7h[16:5],,,,,{32}5,4,3-7[16:3],2h[32:13],{16},,,,,,,
{16},1,8,1,8,1,8,1,8,,3<2[16:6]/7,,,,3h[8:5],,
{16},,,,,,,,,38,,6,5,4-7[8:1],,1,
{16},2-5[8:1],,,,8h[16:7],,,,,7^4[8:1],,1,,3,,
{16}1,,8,,2,7,3,6,4,5,,2b-5[8:1]/6b-3[8:1],,1b/7b,,2b/6b,
{16},,,1-5[8:1],,,7-4[8:1],,,,7,,,,8,,
{16}24,35,46,,,8-4[8:1],,,2-5[8:1],,,2,,,,1,
{16},57,46,35,,1-5[8:1],,,7,,,,8h[4:1],,,,
{16}1,,7/2V46[4:1],,,,6V82[4:1],,,1V35[4:1],,,4,,,,
{16},6,,8,,2,,3/5b,,4b/6,,2/5b,,4b/7,,1-5[8:1]/5b,
{16},,,1,,,,{24}8,7,6,4,3,2,
8,7,6,4,3,2,
7,{48}6,
{48},{24}5,3,2,1,
7,6,5,3,2,1pp4[24:16],{16}6h[8:7],,,,,,,,,
{16},,,,,,,,2h[8:1],,,2h[8:1]/1h[8:1],,,18,,
{16}8h[8:1]/7h[8:1],,,8h[8:1]/7h[8:1],,,1h[8:1]/6h[8:1],,,1h[8:1]/6h[8:1],,,2/5,,34,,
{16}5/6,,,,8h[16:6],,,,,,,5,8,4,7,3,
{16}6,2,5,1b^4[8:1],,,,1/6,,8>6[4:1],,3,,1-5[8:1]/8,,,
{16}1,,,,7^4[8:1],,,,37,,1<3[4:1],,6,,1/8pp5[8:3],,
{16},8,,,,,,,,,17,,,2,4,3,
{16},2/8-4[8:1],,7,5,{32}8,,,,2,,,,{16}3,,6,5,7,,1q5[8:1]/8,
{16},,1b^6[8:1],,,1bv4[8:1],,,1b,,,,,8,2,6,
{16},15,,2,,8^5[8:1],1,,,48,,2,,,23,,
{16}1,,78,,6,,3qq4[16:5],4,,,36,,7,,,7h[4:1],
{16},6,,8,,2^5[8:1]/6,,,5,2,,7,,8,,,
{16}2h[4:1],,3,,5,,4/7-4[8:1],,,3,7,,1V35[32:5],,8,,
{16},{32}4b,5,6,7,{16},,8,,56,,3,24,,6,57,,,
{16}1b,,6,4,5,3,4,2,8b,,3,5,4,6,5,7,
{16}1b,8,2,8,3,8,4-1[8:1],8,5,8,,,,,,,
{16},,,6q2[2:1],5,,,,,,,,2q6[2:1],,,,
{16},,,,,3qq7[4:3],,,,,,,,,8h[8:13],,
{16},,,,,,,,6p3[1:1],,,,,,,,
{16},,,,,,,,,,7q2[1:1],,,,,,
{16},,,,,,,,,,,,,3q6[4:3]*qq3[4:3],,,
{16},,,,,,,,,,,,,,,4,
{16}5,3,6,2^5[8:1],7,1,8,2bq6[8:1],,,2bv7[8:1],,,2b,,,
{16},,,,2,3,4,5,6h[16:3],,,7p6[16:5],,,1h[4:1],,
{16},,,,1,,5,4,3,2,1-5[8:1],8,7,6/1b,,,
{16}8>5[16:3],,,2h[4:1],,,,,,1,8,,3/7-4[8:1],,,4,
{16}7,,2-7[8:1],,1,,6h[4:1],,,,1h[4:1],,,,3,4,
{16}5,6,2,3,4,5,7-5[8:1],8,,,,,,,3,4,
{16}2,5,1,6,2,7,3,4,5,6,7,8,1,24,,,
{16}57,,,18,,2,4,3,,6-4[8:1],,7,,3,,,
{16},,2h[16:3],,,1v4[8:1],,,8,,7-5[8:1],,7,,2,,
{16}1,,,3,,4,7,5,7,6,7,8,7,1,7,2qq3[2:1],
{16},,,,,,,,6qq7[2:1],,,6,,,1,,
{16},,,3,,2,,1,,6,,5,,4,,3,
{16},,1-5[8:1]/7,,,,,,8-6[8:1],,,,3,2-4[8:1],1,,
{16},5,,,,7,,8,,1,,2,4,3,4,2,
{16},,,,34,,45,,5/6>2[16:3],,,,8h[16:5],,,,
{16},1h[16:3],,,7h[16:3],,,5,,5,6pp3[8:3],,,,4,,
{16},,2,,,,1,8,1,8,1,,,,,,
{16},,3h[16:18],,,,,,,4h[16:11],,,,,,,
{16},,,,,,,,,,,,6h[16:17],,,,
{16},,,,,5h[16:8],,,,,,,,,,,
{16},1,,,,,{12}2/3,,67,,4/5,,1/2,{24},
{16},{12}57,,24,,8/7,,{16}1,5,1,5,1,5,1,
{16}5,1,5,1,5,1,6,2,7,3,8,4,1,,2,,
{16}8/3-5[8:1],,,3/6,,,7,,18,,,,2,4,3,5,
{16}4,6^3[8:1],,,26,,8,,,1/7^4[8:1],,,37,,,1,
{16},8^5[8:1]/2,,,48,,,2,,,4b/6,,5b/3,,7/4b,,
{16}5b/2,,8-4[8:1]/4b,,,,8,,{24},,,1,2,3,5,6,7,1,2,3,
{24}5,6,7,3h[8:1]/8h[8:1],,,,5h[8:1]/6h[8:1],,,,1h[8:1]/7h[8:1],,,,3h[8:1]/4h[8:1],,,,1h[8:1]/8h[8:1],,,,7pp2[4:3]/3>6[4:3],
{16},,,,,,,,,,,,,,,,
{16},,,,4^6[4:3],,,,,,,,,,,,
{16},,,,,3^6[4:3],,,,,,,,,,,
{16},,,,,,2>6[4:3],,,,,,,,6,,
{16},,,,,,,1>6[4:3]*^7[8:3],,,,,,,,,
{16},,,,,,{48},,{16}8b,,,2b/3b,,,5b/7b,,,{48},
{16},34,,2,,5,,46,,,6,5,,,4,,
{16}3,,24,,5,,6h[16:3],,,7h[16:3],,,8h[16:3],,,1,
{16},2h[8:3],,4,,6,,8,,,7/1-5[8:1],,,5,1,,
{16}7,,8h[8:3],,3,,1,,7,,,5/8-4[8:1],,,3,8,
{16},1,,2,,3-8[8:1]/7,,,,8,,6-3[8:1],,,2-5[8:1],6,
{16},,2,,,,4/8-4[8:1],,,,2h[8:1],,,1h[8:1]/2h[8:1],,,
{16}1h[8:1]/8h[8:1],,,78,,6/8,,6,4,5,3,4,2,,28,,
{16}2,4,3,5,4,6,8b,,,,{48},,{16}1h[16:6],{48},{16},,,,
{16},4,2,5,3,6,4,7,5,8b^5[8:1],,,,83,,1<3[4:1],
{16},6,,1/8-4[8:1],,,8,,,,2^5[8:1],,,,26,,
{16}8>6[4:1],,3,,1qq4[8:3]/8,,,1,,,,,,,,,
{16}82,,,7,5,6,,7/1-5[8:1],,2,4,{32}1,,,,7,,,,{16}6,
{16}3,4,2,8,1q5[8:1],,,1bv6[8:1],,,1b^4[8:1],,,1b,,,
{16},8,,75,,6,,35,,4-6[8:1],1,,1,4-2[8:1],,,
{16},7,,8,,1pp4[16:7],,2,,1,8,,,6,,5,
{16},,7h[4:1],,8,,6,,4^7[8:1],,,3,4,,2,,
{16}8,,3h[4:1],,2,,4,,7V53[16:3],,3,7,,,8V24[32:5],,
{16}7,,{32}4b,5,6,7,{16},,8,,,56,,3,24,,6,57,
{16},,1b,,6,4,5,3,4,2,8b,,3,5,4,6,
{16}5,7,1b,8,2,8,3,8,4,7,3b,6,2^5[8:1],5,1,4,
{16}2,,,7b,8,6,2b,1,3,5b,4,6b,8,7,1,6,
{16}2,5,3,4,2,1,3,8,4,7,3,6,2,6,2,6,
{16}1,5,1,5,1,5q8[4:3],,,,,,,,,4p1[4:3],,
{16},,,,,,,7>6[2:3],,,,,,,,,
{16},,,,,,,,,,,,,,,,
{16},,,,,,,,2bV86[16:5]/7bV53[16:5],,,,,,,,
{16},,,,,,1^4[8:1],,,,{32}5bpp1[16:6],6,7,8h[96:51],{16},,,,
{16},,,,,,7bV13[16:5]/2bV46[16:5],,,,,,,,,,
{16},,,,,7p3[8:1],,,,{32}3bqq7[16:6],2,1,8h[96:51],{16},,,,,
{16},,,,,2>6[8:1]/6,,,,1w5[8:1],,,,1b,,,
{16},3/7^4[16:3],,,,,,{32}2b,1,8-4[8:1],7,{16},,,1b-5[8:1],,,,
{16}3b-7[12:1],,,6b-2[12:1],,,8bw4[8:1],,,8b<1[1:8],,,,,,,
{16},,,,,,,,,,,,,,,,
{16},,,,,,,,,,,,,,,,
{16},,,,,,,,,,,,,,,,
{16},,,,,,,,,,,,,,,,
{16},,,,,,,,,,,,,,,,
{16},,,,,,,,,,,,,,,,
{16},,,,,,,,,,,,,,,,
{16},,,,,,,,,,,,,,,,
{16},,,,,,,,,,,,,,,,
{16},,,,,,,,,,,,,,,,
{16},,,,,,,,,,,,,,,,
E
