&title=群青レイン(Re Ver.)[SD]
&artist=Jin
&first=-0.01
&des=Cyanide.
&des_6=Cyanide.
&lv_6=12+
&inote_6=(105){4},,,6h[16:7],
3-7[8:1],,,4h[16:7],
2-6[8:1],,,8h[16:7],
6>3[8:1],,,2h[16:7],
3>8[8:1],,,4-7[8:1],
{16}6,,,5-2[8:1],,,,,{4}7<4[8:1],8-5[8:1],
{16}3,,,4>1[8:1],,,,,{4}8<5[8:1],3-8[8:1],
{16}1,,,2-5[8:1],,,,,{4}8>3[8:1],7-2[8:1],
{16}4,,,6-1[8:1],,,,,{4}7<4[8:1],{8}3,2,
{4}1<6[8:1],3-8[8:1],5-2[8:1],{8}6,7,
{4}8>3[8:1],6-1[8:1],4-7[8:1],{8}3,2,
1-5[8:1],8,7-3[8:1],6,{4}6-1[8:1],{8}5,4,
{16}3>8[8:1],,,4,,,{8}5,{4}6<1[8:1],{8}5,4,
{4}3>8[8:1],5-2[8:1],7-4[8:1],{8}8,1,
{4}2>5[8:1],8-3[8:1],6-1[8:1],{8}5,4,
3-7[8:1],2,1-5[8:1],8,{4}8-3[8:1],{8}7,6,
{16}5>2[8:1],,,6,,,{8}7,{4}8>3[8:1],8b/7,
{8}4/6,{16}5h[4:1],4,,,{8}7,{4}6/8,{8}2/8,{16}3,4,
{8}5/2<7[8:1],{16}5,5,,,{8}6,{4}5/7,{8}7h[8:1],{16}5,6,
{8}4/7,{16}5h[4:1],4,,,{8}7,{4}6/8,{8}5/3<6[8:1],{16}1,8,
{8}2,{16}8,8h[8:1],,6,7,5,6,4,5,3,{8}4b,{16}3,4,
{8}2>5[8:1],7,{4}1-5[8:1],{8}1>4[8:1],{16}8,8,,,6,5,
{8}7>2[8:1],{16}3,3,{8}8-5[8:1],3,8-4[8:1],{16}2,2,,,7,8,
{8}1-5[8:1],1,7-4[8:1],6,2>5[8:1],8,1-5[8:3],1h[8:3],
,,,,3b/7b,{16},,,,6,5,
{8}7<4[8:1],2,8-4[8:1],8,8<5[8:1],{16}1,1,,,3,4,
{8}2<7[8:1],{16}6,6,{8}1-4[8:1],6,1-5[8:1],{16}7,3,,,{8}2,
8-4[8:1],7,8/2-5[8:1],{16}1,1,{8}2/7<4[8:1],{16}1,1,{4}8-4[8:3],
,,6b/2b,1-5[8:3],
{8}2,{16}2,3,{8}4,4,{16}4,3,{8}2,8-4[4:1],8,
1,2,{4}3,{16}3,5,4,6,{8}5/7,6/4,
5/3,{16}4<7[8:1],2h[16:1],,,{8}3,4,{16}7-4[8:1],5,,,{8}5-2[8:1],
,4,6>3[8:1],8,{16}2>5[8:1],,,8,{4}1b,
{8}7>2[4:1],2,2,{16}3,4,{8}5,5h[8:1],3<6[4:1],3,
1,2,{4}3,{16}7,7,3,3,{8}2/6,8/4,
1/5,7/3h[4:1],,2,5/1,3/7,6/2-5[8:1],5-2[8:1],
6/2-7[8:1],7-2[8:1],{4}7-4[8:1],{8}7b,3,3,{16}3,4,
{8}2<7[8:1],{16}4,2,,5,{8}5,8,4,6,{16}7,5,
{8}7>2[8:1],{16}5,7,,6-3[8:1],{8}6,,2,4/8,{16}3,7,
{8}2/6,{16}4,8>3[8:1],,,{8}8/3,,2,5h[4:1],7,
3h[4:1],1>4[32:3],8<5[32:3],8b,{4}1b,{8}6,{16}6,5,
{8}7>2[8:1],{16}5,7,,4,{8}4,1,5,3,{16}2,4,
{8}2<7[8:1],{16}4,2,,3-6[8:1],{8}3,,7,5/1,{16}6,2,
{8}7/3,{16}5,1<6[8:1],,,1/6,5,4,3,{8}2/5,4h[4:1],2,
6h[4:1],8<5[32:3],1>4[32:3],1b,{4}8b,2<7[8:1],
1-6[8:1],8<5[8:1],7-4[8:1],6-1[8:1],
2-5[8:1],3-8[8:1],7-4[8:1],6-1[8:1],
7>2[8:1],{8}8,5,5-8[8:1],4,{4}5b/3h[4:1],
,2h[2:1]/1-4[8:1],{16},,,,6h[4:1],,,5,
,,{8}4/7-2[4:1],{16},,,,,,5,4,3h[4:1],,,4,
,,{8}5/2-7[4:1],,,,6,{16}6h[16:3],,,2h[16:3],
,,{8}3-8[4:1],{16},,,,,,7,6,5h[16:3],,,7h[16:3],
,,{8}6-1[4:1],5,4,{4}3-7[8:1],3/2,
{8}2<7[4:1],7,7,{16}6,5,{8}4,4h[8:1],6>3[4:1],6,
8,7,{4}6,{16}2,2,6,6,{8}7/3,1/5,
8/4,2/6h[4:1],,7,4/8,6/2,7-4[8:1],3-6[8:1],
7-2[8:1],3-8[8:1],{4}7-4[8:1],{8},2,3/6,{16}6,5,
{8}7>2[8:1],{16}5,7,,4,{8}4,1/5,4/8,7,{16}2,4,
{8}2<7[8:1],{16}4,2,,3<6[8:1],{8}3,,7,5/1,{16}6,2,
{8}7/3,{16}5,5/1<6[8:1],,,{8}1/6,,7,5h[8:3],7,
4,2>5[32:3],1<6[32:3],1b,{4}2b,{8}3,{16}3,4,
{8}2<7[8:1],{16}4,2,,5,{8}5,8/4,5/1,2,{16}7,5,
{8}7>2[8:1],{16}5,7,,6>3[8:1],{8}6,,1h[4:1],{16},,3,7,
{8}2/6,{16}4,8>3[8:1],,,8/3,4,5,6,{8}7/4,5h[8:3],2,
4,7<4[32:3],8>3[32:3],8b,{4}7b,{8}7>2[8:1],3,
8-3[8:1],4,1>4[8:1],5,2-5[8:1],6,3-8[8:1],6,
7-4[8:1],7,{4}6-1[8:1],{8}2-5[8:1],2,3-8[8:1],6,
2<7[8:1],5,,4,4-1[8:1],5,{4}4b/6h[4:1],
,7h[2:1]/8-5[8:1],{8},,2-5[8:1],1,
3-8[8:1],{16}7,7,,6,5,4<7[8:1],,,1,2,{8}3-7[8:1],3,
6<1[8:1],{16}5,5>2[8:1],,4,,6,,,1,8,{8}7-4[8:1],1,
6-1[8:1],{16}2,2,,3,4,5>2[8:1],,,8,7,{8}6-2[8:1],6,
3>8[8:1],5,{4}4<7[8:1],3b,{8}8-4[8:1],1,
8/2-5[8:1],3,5/2<7[8:1],7<4[8:1],{4}3b,{8}8-3[8:1],7,
8/5-2[8:1],6,7/5<8[8:1],8>3[8:1],{4}4b,{8}7<4[8:1],1,
8-4[8:1],2,1-6[8:1],3,{16}4,3,{8}2-6[8:7],,,,,,,,,,,,,,4h[2:1],
{2}3-6[4:1],
{8}3,,,5h[2:1],{2}6-3[4:1],
{8}6,,,4h[2:1],{2}3-6[4:1],
{8}3,,,5h[8:5],{2}6,
{4}6-3[4:5],1-6[1:1],
E
