&title=Fallensquare
&artist=Silenroom
&first=0
&des=Nosgel
&lv_5=14+
&inote_5=(99)
{4}
,,,,
{16}
8^5[128:511],2,1,3,4,2,8,3,3,2,3,1,2,2,1,2,
4,3,4,4,2,1,8,1,2,1,3,2,4,3,2,3,
7,1,2,2,8,1,7,7,1,8,8,2,7,1,1,8,
,2h,1,2h,3,2h,1,2h,8^5[16:1],2h,4,2h,8b,,,,
2p6[8:1],3,4,5,6V41[8:1],,,,1V35[8:1]/6,,,,5qq5[8:1],,,,
8h[16:3]/5V73[8:1],,,,3V17[8:1],,,,7V58[8:1]/3,,,,1h[16:1]/7,,1,1,
8h[16:3]/1p5[8:1],2,3,4,5V37[8:1]/1,,,,7V15[8:1]/5,,,,5>3[12:1]/7,,,,
5/3V57[8:1],1,1,1,7<3[8:1],,1,1,3v6[12:1],1,1,1,,,1,1,
8h[16:3]/4v7[8:1],4,5,5,7V13[8:1],,,,3V57[8:1]/7,,,,7qq7[8:1],,,,
2h[16:3]/7V14[8:1],,,,4V62[8:1],,,,2V84[8:1]/4,,,,8h[16:1]/2,,8,8,
2h[16:3]/8p4[8:1],7,6,5,4V27[8:1]/8,,,,7V51[8:1]/4,,,,3/7,,,,
2v4[8:1],1,5V71[8:1],6,2<5[4:1],,5,,2,3,4,4h[16:1],,,,,
1q5[16:1],,,8h[8:1],1,,7,6,5q1[16:1],4,3,2,,,,8,
1v4[16:1],2,3,4,5,6,7,8,1V75[8:1],2,3,4,,,,,
8v6[8:1],4,6V42[12:1],2,1h[16:1],,1h[16:1],,1z5[8:1],3,5,7,,,,,
2-4[12:1],1,4V62[12:1],5,2,1,8,7,5p1[16:1]*q1[16:1],4,3,2,,,,,
2v5[16:1],8,1,7,2>8[8:3],8,7,6,5q1[8:1],,,,,,,2,
7v2[16:1],1,3,5,7>6[8:3],4,3,2,1v6[8:1],,,,,,,,
5-1[16:1],4,5,5,2pp6[8:3],2,8,2,1-7[8:1],,,,,,,8,
1<6[16:1],6,2,7,1V35[8:1],,5V71[8:1],,1-5[16:3]*s5[16:3],,,,,,,,
6>8[2:1],,,2,3>5[2:1]*>5[2:1],,1h[4:1],,,,,4,5>7[2:1],1,2,3,
2<4[2:1]*<4[2:1],,,8,8,,6h[4:1],,,,,,3<1[2:1],1,8,7,
6<4[2:1]*<4[2:1],,,7,7,,6,,4<2[2:1],,1,1,8,8,7,7,
4-8[12:1],,,5,4,,3h[4:1],,,,6h[48:11],,{48}3,2,1,8,7,,{32}5,4,3h[4:1],,{16}
7V13[2:1],,,,1V35[2:1]*V35[2:1],,2h[4:1],,,,,,5V71[2:1],2,1,8,
7V13[2:1]*V13[2:1],,,3,4,,5h[4:1],,,,,,4V28[2:1],1,1,2,
2V86[2:1]*V86[2:1],,,4,4,,5,,6-4[4:1],,1,,2,1,8,7,
6-8[16:1],6,5,4,3-1[16:1]/6,4,5,6,8w4[6:1]*z4[6:1],8,8,8,,,,,
3V58[8:3],,6h[16:1],,7/3,,7,,7V14[8:3],,7,,1/7,1,2,2,
3V58[8:3],,1h[16:1],,3/1,,8V61[16:3],,1,,2,,2,3,4,5,
6V83[8:3],,1h[16:1],,2/6,,1,,2V47[8:3],,2,,2/8,5,5,6,
6V83[8:3],,8h[16:1],,6/7,,3V51[8:2],,6-8[8:1],,7,,,,,,
1V38[8:1],,2,,1/5V74[4:1],,6,,5/4-2[8:1],,2-8[8:1],,8-6[8:1],,6>4[8:1],,
4^2[8:1],,2<7[8:1],,7<4[8:1],,4>1[8:1],,1<5[16:3],,,,4-8[18.85#192:2],3,2,1,
8h[1:1]/4h[1:1],,,,,,,,,,,,,,,,
,4,1,7,2,6,3,5,4w8[16:2],4,3/5,2/6,4b,,,,
1-3[16:1]/8,,1/2,,1-4[16:1]/8,,7/8,,1-5[8:1]/8,,3/5<3[4:1],,1/7h[2:1],,,,
,,,,3-5[16:1],2,1,8h[16:2],3qq7[8:3],,8V64[4:1],8,3,8,,,
,,,,6V84[24:5]/2,6,5,4,3,3,2,2,{32}1<4[4:1],2,3,,{16}5,6,
7h[4:1]/1,,,,,3/7,6/2,5h[16:3]/1h[16:5],,,,,7-3[16:1],,5/1,,
7-5[16:1],,,8,7/4-8[16:1],3,2,2,{24}1-5[16:1]/4,2,3,7,6,5,{16}/1-3[16:1],6,7,8,
{32}1,,8,7,6,5,4,3,1/2,8,7,6,5,4,3,2,6,7,8,1,2,3,4,5,2,6,2,6,3,7,3,7,
4h[16:3],,,,,,5-3[16:1],4,5h[16:1],,6h[16:1],,7,,8,,1,2,1,2,1,,8h[4:1],,2<4[16:7],,3,,4,,5h[16:1],,{16}
2,5,4,4,3V51[4:1],3,2,2,1-7[12:1],8,1,2,2pp6[16:3],3,3,,
2/8-5[16:1],,,,{12}8-3[16:1],2,1,8V64[6:1],6,7,{16}8-2[16:1],4,3,1h[4:1],
8^5[16:1],,,,8-4[16:1],4,2,1,{32}8^6[16:1]/1,2,3,,{16}5,6,8,2,3,8/4,
5h[16:3]/1h[8:1],,,,{24}1,2,3,5,6,7,{32}2,3,4,5,1,2,3,4,8,1,2,3,4/5,6,7,8,
{12}1-3[16:1]/5,4/8-4[16:1],3/7-5[16:1],1,8,7,8-2[16:1],2-4[16:1],4-8[12:1]*-8[12:1],8w4[4:1],,,{16}
,,,,{32},,,,,,3,4,3-7[16:1],,,,,,3,4,{16}3>4[16:3],4,5,6h[16:5],
3V15[16:3],,,,3,6,7,8h[8:1],,,1-5[16:1],5,3>4[18.85#64:5],8,1,,
3h[1:1]/7h[1:1],,,,,,,,,,,,,,,,
,7,6,5,4,3,2,1,8,7,6,5,4b,,,,
5h[8:1]/1v2[12:1],,,,1/2v4[12:1],,,,2/4v7[12:1],,,,4/7-3[16:1],,,,
7/3V57[8:1],,2,,3/1-5[16:1],,8,,1/5V38[8:1],,6,,5/8v5[12:1],,7,,
8/5qq3[8:1],,4,,5/3v1[8:1],,2,,3/1V75[8:1],,8,,1/5-1[12:1],,3,,
5-3[12:1]*-2[12:1],,4,,5-8[12:1]*-7[12:1],,6,,5w1[8:1],,4,,5,,,,
4/8v3[8:1],,2,,4/8v5[8:1],,6,,4/8V24[8:1],,2,,4/8^5[8:1],,6,,
1-3[12:1],8,8,8,7-5[12:1],8,8,8,8>6[8:1],8,8,8,8/4,,,,
8v5[12:1],,6,,8/4v1[12:1],,2,,4/8q5[12:1],,6,,8/4q1[16:1],,2,,
4/7-3[16:1],6,5,4,3,2,1V35[8:1]/5V71[8:1],8/4,5v3[8:1]/1v7[8:1],,,,,,,,
