&title=ただ声一つ
&artist=ロクデナシ
&first=0
&des=crystal
&lv_2=1
&lv_3=6
&lv_4=9+
&lv_5=12+
&inote_2=(130){32},,,,,,,,,,,,,,,,,,,{2}6,,7,,8,8,8h[2:1],,3,,2,,1,1,1h[2:1],,5h[1:1],,,,5/6,,5/6,5/6,4h[1:1],,,,3/4,,3/4,3/4,3-6b[4:5],,,,2,2,1,,7,7,8,,1,1,2,,8,8,7,,6p1[4:5],,,,3q8[4:5],,,,5,,5/6,,4,,3/4,,1,1,1,,2,2,2,,3h[2:1],,3,3,4h[2:1],,4,4x,4b-8[4:5],,,,5-1[4:5],,,,B2,,B1,,B8,,B7,,
4,4,3/4,,5,5,5/6,,2,2,1/2,1/2,7,7,7/8,7/8,1,1h[2:1],,2,4,4h[2:1],,3,5,5h[2:1],,6,8,8h[2:1],,7,4h[2:3],,,,5h[2:3],,,,7,8,2,1,8h[2:1],,1h[2:1],,8bh[2:7],,,,,,,,1h[2:7],,,,,,,,{8},,,Chf[4:1],,E
&inote_3=(130){32},,,,,,,,,,,,,,,,,,,{4}3,3,3,,4,4,4,,5,5,5/6,5/6,6,6,5/6,,6,6,6,,5,5,5,,4,4,4/3,4/3,3,3,3/4,,2h[2:1],,1,,7h[2:1],,8,,2,2,2/1,,7,7,7/8,,3h[2:1],,4,,6h[2:1],,5,,3,3,3/4,,6,6,5/6,,4xh[2:3],,,,5xh[2:1],,,,3b,3,2,2,3,3,4,,6,6,7,7,6,6,5,,1,1,8,8,1,1,2,,8,8,1,1,8,8,7,,7-2[4:3],,,,,,3,3,3-6[4:3],,,,,,5,5,5-8[4:3],,,,,,1,1,1-4[4:3],,,,,,6,6,6h[2:1],,,,6h[2:1]/5h[2:1],,,,3h[2:1],,,,3h[2:1]/4h[2:1],,,,6,6,6,,6h[2:1]/5,,5,,3,3,3,,3h[2:1]/4,,4x,,
3b<8[4:3]/4b,,,,,,1/2,,6>1[4:3]/5,,,,,,8/7,,6,6,6,6,8,8,8,8,1,1,1,1,3xh[2:1],,,,B8,,B7,,B6,,E6,,B1,,B2,,B3,,E4,,5,4,3,3,4,5,6,6,7h[2:1],,8,,2h[2:1],,1,1,1b/2b,1/2,3/8,,7/8,7/8,1/6,,3/4,3/4,2/5,,5/6,5/6,4/7,,4h[2:1],,8,7,6h[2:1],,2,3,4h[2:1],,5,6,7h[2:1],,3,2,1b-5[4:3],,,,,,4h[2:1]/6h[2:1],,,,,,4,4,6,6,8-4[4:3],,,,,,3h[2:1],,5h[2:1],,3h[2:1],,6h[2:1],,2h[2:1],,7b,7,8,8,1,1,2,2,3,3,4,4,5,5,6,6,7,7,6,6,5,5,4,4,3,3,2,2,1,1,8xh[8:3],,,{8},Chf[4:1],,E
&inote_4=(130){32},,,,,,,,,,,,,,,,,,,{8}7,7,8,,2,,1,,2h[2:1]/1,,8,,7,,7,,4,4,3,,5/6,,4/7,,3h[2:1]/6,,6,,6h[4:1],,3,,2,2,1,,7,,8,,6h[4:1],,5,,3h[4:1],,4,,5,5,6,,7/8,,1/6,,2h[2:1]/7h[2:1],,,,,,,,
6-1[4:1]/1,,,,,,,,3-8[4:1]/8,,,,,,,,6h[2:1]/4,,5,,7,,5,,3h[2:1]/5,,4,,2,,4,,6h[2:1]/3-7[4:1],,,,,,,,3h[2:1]/6-2[4:1],,,,,,,,7h[2:1]/8,,1,,2,,2,,2h[2:1]/1,,8,,7,,,,A8,,E1,B1,A2,,E3,B3,A6,,D6,,A5,,,,4h[4:3]/3b,,2,,3,,1,,5h[4:3]/6,,7,,6,,8,,4h[4:3]/3,,6,,3,,6,,5h[4:3]/6,,3,,6,,3,,8,,2,2,7,,2,2,6,,2,2,5,,3bh[1:1],,6x,,7x,,8x,,6^1[2:1],,,,,,,,,,
8,,6,,4,,2,,1,,3,,5,,7,,2/8,,4/6,,2/8,,4/6,,1/7,,3/5,,1/7,,3/5,,7h[4:1]/8h[4:1],,,,5h[4:1]/6h[4:1],,,,3h[4:1]/4h[4:1],,,,1h[4:1]/2h[4:1],,,,7h[4:1]/8,,8,,2h[4:1]/1,,1,,6h[4:1]/5,,5,,3h[4:1]/4,,4,,5-8[4:1]/4,,,,1,,2,,4-1[4:1]/5,,,,8,,7,,2-7[4:1]/6-3[4:1],,,,,,,,3-6[4:1]/7-2[4:1],,,,,,,,8h[4:1]/1,,2,,6h[4:1]/3,,4,,1h[4:1]/8,,7,,3h[4:1]/6,,5,,6h[2:1],,,,7,,7x,,3h[2:1],,,,2,,2x,,
4bw8b[4:5]/5b,,,,,,,,,,,,,,,,1^4[2:1]/5^8[2:1],,,,,,,,3^2-8[2:1]/7^6-4[2:1],,,,,,,,6h[2:3]/5-7-3-1[4:5],,,,,,,,,,,,,,,,3h[2:3]/4z8[4:5],,,,,,,,,,,,,,,,1,,,,8,,,,2,,,,1,,,,8,,,,1,,,,7,,,,8,,7,7,2,,7,7,2,,7,7,3,,7,7,3,,4/6,4/6,5,,4/6,4/6,3/7,,4v1[4:3]/6v1[4:3],,,,,,,,,,
8b/2h[4:1],,,,8/3h[4:1],,,,8/4h[4:1],,,,8/5h[4:1],,,,1/7h[4:1],,,,1/6h[4:1],,,,1/5h[4:1],,,,1/4h[4:1],,,,6,,1,,7/8,,7/8,,2,,7,,1/8,,2bh[1:1],,5x,,6x,,7x,,5^8[2:1],,,,,,,,,,3,,3,3,4,,4,4,5,,5,5,6,,6<5[2:3],,,,,,,,,,,,,,,,,,2,,8,8,7,,1,1,2,,8,8,7,,7,,6h[2:1]/1h[2:1],,,,,,,,E2/E6,,B2/B5,,B4/B3,,E4,,3bh[2:3]/4,,5,,6,,7,,6,,5,,6,4,6,,1/2,,1/2,,3/8,,3/8,,5,6,5,6,5,,5,,6bh[2:3]/5,,4,,3,,2,,3,,4,,3,5,3,,6h[4:1],,5,5,5h[4:1],,4,4,4h[4:1],,3,3,3xh[8:3],,,,,,,Chf[4:1],,E
&inote_5=(130){32},,,,,,,,,,,,,,,,,,,{16}5,,5,4,6,,4,5,3,,6,5,7,,3,4,2,,6,5,8>3[4:1],,,,8,,,,,,,,1,,1,8,2,,8,1,7,,2,1,3,,7,8,6,,2,1,4<7[4:1],,,,4,,,,,,,,8h[4:1]/1,,,,1,,,,7h[4:1]/2,,3,,4,,,,3h[2:1]/7-1[8:1],,,,7-5-3[4:1],,,,7,,,,,,,,6h[4:1]/5,,,,5,,,,6h[4:1]/5,,4,,3,,,,5p4[2:1]/4>5[2:1],,,,,,,,,,,,,,,,
4/7,,,,5,,1/2,,2h[4:1]/5h[4:1],,,,,,,,2/5,,,,4,,7/8,,4h[4:1]/7h[4:1],,,,,,,,8h[2:1]/5,,4,,3,,2,,1,,,,8-6-4[2:1]/1v3[2:1],,,,1/8,,,,A6/C/B6,,,,A4/A3/D4,,,,4,,2,,1,,,,5,,7,,8-6[4:1],,,,8z4[2:1],,,,8h[2:1],,,,,,,,,,,,7/4,,7/4,,3/6,,,,6/2,,2/6,,1/5,,,,8^1-4[2:1]/4^5-8[2:1],,4/8,,4/8,,,,,,,,A4,,,,,,,,6xh[1:1],,,,7,,8,,1x,,,,2,,3,,4xh[2:1],,,,6,,,,5,,,,4/5q1[8:1]*v2[8:1],,,,
5b`C,,,,5/4p8[8:1]*v7[8:1],,,,4`C,,,,5/6q2[8:1]*^1[8:1],,,,6`E8,,,,4/3p7[8:1]*^8[8:1],,,,3`E2,,,,6-1[8:1],,5,,6,,,,3-8[8:1],,4,,3,,,,1-5[4:1],,,,1/5>1[4:1]*<1[4:1],,,,,,,,,,,,3-1[8:1],,3,,7-2[8:1],,,,3-8[8:1],,3,,7-2[8:1],,,,3-6[8:1],,3,,7-2[8:1],,,,3-5[8:1],,3,,7h[4:1],,,,3x,,4x,,5b,,,,7x,,6x,,5b,,,,1pp1[2:1],,,,,,,,,,,,,,,,1xh[4:1],,,,,,,,2,8,2,,8,,,,7,1,7,,1,,,,5,3,5,,3h[4:1],,,,5h[4:1],,,,,,,,4,6,4,,6,,,,7,1,7,,1h[4:1],,,,8-5[8:1],,,,1-4[8:1],,,,8<1[2:1],,,,Cf,,,,,,,,,,,,,,,,5/6,,,,4/7,,,,3/4,,2/5,,1/6,,,,7/8,,,,1,2,1,,1/2,,,,8,7,8,,7-1-3[2:1]/8-2-4[2:1],,,,,,,,,,,,,,,,
7/5,,,,6,,6,,3h[4:1],,6h[8:1],,,,,,2/4,,,,3,,3,,6h[4:1],,3h[8:1],,,,,,7,,,,5/6,,5/6,,3/4,,3/4,,1-5-7[2:1]/2-4-8[2:1],,,,1/2,,,,E6/E5/E4,,,,A7/A8/D8,,,,6,,7,,1,,,,3,,2,,8-6-4[4:1],,,,4-2-8[4:1],,,,8-6-4[4:1],,,,4-2-8[4:1],,,,8,,,,4h[4:1],,,,6h[4:1],,,,2,,2,,2h[4:1],,,,7,,7,,7x/1x,,,,2x/8x,,,,6x/4x,,,,5x/3x,,,,4bx/5bx,,
5,D5,4,,4,D4,4,D3,3,E3,3,D4,4,D3,4,,D6,5,D5,,4,D6,5,,E6,5,D6,,6,D7,6,,7,E7,6,,4,D4,4,6,D7,6,6,7,E7,6,D6,,E6,5,D6,6,D7,6,E6,6,6,D7,6x,,6,D6,5bx,,,,5,E6,5,3,3,D3,3,5,,5,D5,4,E5,4,D4,D3,3,D5,4,D4,4,1,D2,3,D5,5,D6,E5,5,,5,D5,4,5,3,D3,3,5,D6,5,,5,E6,5,D5,D7,5,E5,D4,4,D5,5,E5,,,,,,,,
7h[1:2],,,,,,,,,,,,,,,,4,,,,,,,,3,,,,,,,,2h[1:2],,,,,,,,,,,,,,,,5,,,,6,,,,7,,,,8,,,,Ch[1:1],,,,1,,2,,1,,,,1-4[2:1],,2,,1,,,,,,,,,,,,3h[4:3],,,,Ch[1:1],,,,,,,,,,,,,,,,3w7b[4:1],,,,,,,,,,,,
4/5V71[8:1]*q2[8:1],,,,5b`B7,,,,5/4V28[8:1]*p7[8:1],,,,4`B2,,,,5/6-2[8:1]*^7-1[8:1],,,,6`B8,,,,4/3-7[8:1]*^2-8[8:1],,,,3`B1,,,,6p8[8:1],,5,,6,,,,3q1[8:1],,4,,3,,,,1-5[4:1],,,,1/5<3[4:1]*qq3[4:1],,,,,,,,,,,,6-3[8:1],,6,,1-4[8:1],,,,6-2[8:1],,6,,1-4[8:1],,,,6-1[8:1],,6,,1-4[8:1],,,,6-8[8:1],,6,,1-4[8:1],,,,6x,,7x,,8b,,,,3x,,2x,,1b,,,,8qq8[2:1],,,,,,,,,,,,,,,,,,,,5h[4:1],,,,4,,4,,5h[4:1],,,,4,,4,,6h[4:1],,,,3,,3,,6h[4:1],,,,3>6[2:1],,,,Cf,,,,,,,,,,,,,,,,4,,3,4,3,,3,,7,,7,,7,,,,8-5[8:1],,,,4-7[8:1],,4,,8-5[8:1],,,,3-7[8:1],,3,,8-5[8:1],,,,2-7[8:1],,2,,8-5[8:1],,,,4x,,3x,,2b,,,,6x,,7x,,8b,,,,2-7[2:1]*v7[2:1],,,,,,,,,,,,,,,,6xh[4:1],,,,5,,6,,5,,6,,4,,7,,4,,7,,3,,8,,3,,8,,2x,1x,2x,1x,2b,,,,2h[8:1],,,,3h[8:1]/1h[8:1],,,,4h[8:1]/8h[8:1],,,,7>3[2:1]/5v3[2:1],,6,,5/7,,,,,,,,,,,,3xh[4:1],,,,4,,3,,4,,3,,5,,2,,5,,2,,6,,1,,6,,1,,7x,8x,7x,8x,7b,,,,4,,,,7,4,7,,4,,,,2,5,2,,5,,,,3-6b[8:3],6,3,6,3,,,,,,,,,,,,,,Chf[4:1],,,,,E
