&title=Sort Jewel
&artist=ユラメ feat. 可不
&first=0
&des=▢▤▦▥▣▧▩▨▢
&lv_5=13+
&inote_5=(144)
{1},,
{8}6,5,4,3,2/5h[8:1],,3/5h[8:1],,
{8}4/5h[8:1],{12},{24}1,,,5,3,,{24},{8}4h[8:1]/7,,4h[8:1]/6,,
{8}4h[8:1]/5,{12},{24}8,,,4,6,,{24},{8}5h[8:1]/2,,5h[8:1]/3,,
{8}5h[8:1]/4,{12},{24}1,,,5,3,,{24},{8}47,D2,E5,{24}E7,,E1,
{24}D4,,,E3/D8,,,D6/Chf[4:1],,,,,,{8}8x,2x,8/1,3,
{8}8/1,{12}4,{24}7,,,5,6,,{24},{8}81,7,81,6,
{8}1/8,{12}5,{24}2,,,4,3,,{24},{8}8/1,2,81,3,
{8}8/1,{12}4,{24}7,,,5,6,,{24},{8}81,4/2,5/3,{24}6,,1,
{24}4V68[8:1]*V28[8:1],,,53,,,,,,,,,{8}1xb/7xb,,{24}3h[8:1],,,4,,4,
{24}2,,2,7,,7,3<5[8:1],,,4,,,2xq6[8:1],,,,,,1xv7[8:1],,,,,,
{8}8x,,5x>2[8:1],,7/5,,{24}6h[8:1],,,5,,5,
{24}7,,7,2,,2,5,,,4,,,5,3,,6h[8:1],,,2h[8:1],,,7x,6x,5x,
{24}4xv5<8[4:1],,1xh[24:1],{8},4x/3x,,4bh[8:1],7,3h[8:1],4,
{8}1h[8:1],8,2h[8:1],5,7/3,6/4,{24}2,5,,,,4/3,
{24},,1,5,,5,3,,,4/7,,,3/1,,,E1,B8,B7,E7,,,6x/4x,,,
{24}E5,B4,B3,E3,,,6x>4[8:1]/2x,,,,,,7xp3[8:1],,,,,,8x>7[4:1],,,,,,
{24}1xh[4:1],,,,,,,,,,,,7b-4[8:1],,1,,,1,7,,,3,,,
{24}2h[4:1]/5,,,6,,,7,,,,,,2-5[8:1],,8,,,8,2,,,6,,,
{24}7h[4:1]/4,,,3,,,2,,,,,,6>3[8:1],,4,,,4,6,,,1,,,
{24}2h[4:1]/4,,,{8}5,6,7,8,{24}A3,A4,A5,A6,,,D8,,,
{8}C,D2,,,E2/B5,,E8/B3,,
{8}E6/B1,,E4/B8,,1x/B6,,7x/E4,,
{8}2x/E6,,8x/B4,,1/B6/B5/E6,1,2/B6/B5/E6,2,
{8}8/E4/B3/B4,8,7/B3/E4/B4,7,{24}1,8,,2,7,,3,6,,4,5,,
{8}2bq6b[8:1],,,{24},,,,,8b/4x,,7b/4x,,6b/4x,,3b/5x,,2b/5x,,
{8}1b/5x,,,,{64}D7,E7,B6,B3,E3,D3,,,{8},B5h[12:5],,
{8}Chf[4:1]/B1h[24:5],,,,{32}7b-3[8:1]/1b,,,,{24},,,2pp8[4:1],,,1,,,
{24}5,,5,,,7,,,,8/6,,,6h[8:1]/5,,,4,,,4-8[8:1]/5h[8:1],,,3,,,
{24}1>4[8:1]/4<7[8:1],,,,,,4xV28[8:1],,,,,,,,,5,,,6/1,,,8/2,,,
{24}4>1[8:1]/1<6[8:1],,5,,,,1x-5[8:1],,,,,,,,,8,,,4,6,,3,,,
{24}5w1[8:1],,46,,,,{8},,{24}2b-6[8:1]/8b,,,,,,7qq1[4:1],,,8,,,
{24}4,,4,,,2,,,,1/3,,,3h[8:1]/4,,,5,,,5-1[8:1]/4h[8:1],,,6,,,
{24}8<5[8:1]/5>2[8:1],,,,,,5xV71[8:1],,,,,,,,,4,,,3/8,,,1/7,,,
{24}5<8[8:1]/8>3[8:1],,4,,,,8x-4[8:1],,,,,,,,,1,,,5,3,,7,,,
{24}3/5,,2,4,,,1-5b[8:1],,6,3,,5,1b,,,6,,,7-3[8:1],,4,5,,,
{24}3,,,1,,4,,,,3/5,,2,8,,,6/4,,7,3>8[8:1],,,2,,5,
{24}3<6[8:1],,,4,,,8,,,2,,7,,,,4/2,,,3>8[8:1],,,4,,,
{24}5-1[8:1],,,6,,,5>2[8:1],,4,,,,8x<5[8:1],,,1,,,2,,,3,,3qq4[4:1],
{24}6,,4,,,5h[4:1],,,,,,,,,,7x,,,2-6[8:1],,8,3,,,
{24}6,,,8,,5,,,1,2,,7,4-6[8:1],,,5,,,4V28[8:1],,,3,,,
{24}8,,,6,,,8,,5,3,,,2x/8x-4[8:1],,,2,,8,{32}A2,B2,C,B6,{24}A6,,,
{24}7x/1x-5[8:1],,,7,,1,{32}A7,B7,C,B3,{16}A3,,8b/2b,,4,6,7bpp6[4:1]/3bpp2[4:1],,4,5,
{24}7b/3b,,,,,,,,,,,,{12}1xv4[8:1],5,5,1x,6,7,
{12}8x-5[8:1],4,4,8x,3,2,1x,7,4,6-2-6[24:7],3-8-5[24:5],6,
{8}4,,,,{12}5xV71[8:1],4,4,5x,4,3,
{12}2x-6[8:1],5,5,2x,7,8,5x,7,4,8-5>4-1[16:5],3,3,
{8},,,,{24}2b/6b,,,,,,3>6<3[4:3],,3,,,,
{24}6,,,,,,5,,5,,,,4,,,,,,6<3>6[4:3],,6,,,,
{24}2,,,,3,,,,4,,,,5,,,,,,3>6<3[4:3],,3,,,,
{24}6,,,,,,5,,5,,,,4,,,,,,6<3[8:3],,6,,,,
{24}3x,,,,4x,,,,5x,,,,6xpp5[4:1],,,,,,5xqq5[4:1],,,,,,
{8}2x,,,,3xqq4[4:1],,4xpp4[4:1],,
{8}7x,,{24},,6x,,5x,,{24}4h[8:1]/7h[12:1],,,,,,4h[8:1]/7h[12:1],,,,,,
{24}4h[8:1]/5h[12:1],,,,,,4h[8:1]/5h[12:1],,,,,,5h[8:1]/3h[12:1],,,,,,5h[8:1]/3h[12:1],,,,,,
{24}5h[8:1]/1h[12:1],,,,,,5h[8:1]/1h[12:1],,,,,,7h[8:1]/2,,,3,,,2h[8:1]/6,,,5,,,
{24}6h[8:1]/3,,,4,,,5s1[2:1]*-1[2:1]/6,,,4,,,,,,,,,,,,,,,
{8},,,{24}5x,,5x,3x,,,,,,74,,,3,,,
{24}25,,,6,,1,,,1,7,,,82,,,3,,,47,,,6,,,
{24}53,,,,,,7,,7,4,,4,5,,,,,,2/5,,,6,,,
{24}74,,,3,,5p7p1[24:19]*q3q1[24:19],,,4,6,,,,,,,,,,,,,,,
{24},,,,,,,,,,,,{8}6b-8[8:1]/1b,8-5[8:1],6/5V74[16:3],4,
{8}2,,3-1[8:1],1-4[8:1],3/4V25[16:3],5,7,,
{24}6,,4,5qq2>4b[8:3],,2,6,,4,7bh[4:1],,,,,,,,,8h[4:1],,,,,,
{8}4>1[8:1],5,7<4[8:1],8,3-7[8:1],2,8-4[8:1],1,
{24}5,,,,,,6x,,4x,6x,,,{8}3-1[8:1]/8,1-4[8:1],3/4V25[16:3],5,
{8}7,,6-8[8:1],8-5[8:1],6/5V74[16:3],4,2,,
{24}3,,5,4-1b[8:1]*-7b[8:1],,6,2,,5,4b,,,,,,{24}8-4[12:1],,,2,,8,3,,,
{24}2,,2,5-8b[8:1]*-2b[8:1],,,6,,4,5b,,,,,,1-5[12:1],,,8,,1,5,,,
{24}7,,7,4,,6,3,,5,2,,4,1xh[4:1],,,,,,3h[4:1],,,,,,
{8}5h[4:1],,7h[4:1],,2h[4:1],,6h[4:1],,
{8}2h[4:3],,,8h[8:3],,,,,
{8}7/1,7,2/5,3,4/6,7,2-6[8:1]/8,1,
{8}8h[4:1],,{24}5,,6,4,,8,{8}3b-6b[8:1],6-2b[8:1],3/2V48b[16:3],1,
{8}7,,6-3b[8:1],3-7b[8:1],6/7V51b[16:3],8,2,,
{24}3,,8,4>1b[8:1]*<7b[8:1],,6,2,,5,4b,,,,,,{24}8-5[12:1],,,1,,8,3-8[12:1],,,
{24}4,,3,5<8b[8:1]*>2b[8:1],,,6,,1,5b,,,,,,1-5[12:1],,,8,,1,6,,,
{24}8,,5,7,,4,6,,3,5,,2,{96}7bh[2:1],B2,Cf,B6,{24}A6,,,,,,,,,,,
{8}1h[2:1],,,,5h[2:1],,,,
{8}3h[2:1],,,,C,,,,
E
