&title=Just You
&artist=サルケバ
&first=0.63
&des=MikanStar
&lv_5=14
&des_5=MikanStar
&inote_5=
(190){4},,1,1,
{32}8h[32:3]/1x-5[8:1],2,3,4,,,,,{8}1-3[8:1],8,7/1,6,5,B4,
B3,B2,{4}B1,{8}B7,B8,,1,
8<5[8:1],2,8/3-8[8:1],4,{4}3,{8}B4,B3,
{4}B5,{8}B8,B7,,8/7h[8:1],{16}8x,1x,2x,3x,
{8}5b/4b-1[8:1],6,4/7p3[8:1],8,7,B1,B2,8,
1,8,{4}1h[4:1],{8}B7,C,,8,
1>4[8:1],7,1/6-1[8:1],5,{4}6,{8}B3,B4,
{4}B5,{8}6,5,,4,{4}3/5<8[8:1],
{24}1bx/5,2,3,4,,,,,,{8}4,5,3,4,2,
5x,3,{4}1-5[8:1],{8}1x/3x,3-1[8:1],,3/8-4[8:1],
7x,6/8,5-1[8:1],6,{4}5x-8[8:1],{8}5/4,3,
{4}2x-6[8:1],{8}2/1,1-5[8:1],,1/3,3-8[8:1],4,
{4}5/3b,5,5,5,
4/B6,4/B7,5/B3,{8}5/B2,B3,
B4,E5,7x/B2,6x/B3,{4}5x/B4,{8}3/6,{16}5,5,
2,3,4,5,7,6,5,4,1,2,3,4,5/6,7,8,1,
{4}2b/3b<2[4:3],{8}8x,8x,,5x,{4}5x,
{8}6,6-2[8:1],5,6>3[8:1],,6,8,7,
{4}6-4[8:1],{8}8/6,8-3[8:1],,8/2-5[8:1],,2x,
,,1,2/8<5[8:1],,8pp3[8:9],,8b/E7/B6,
,,B6,B7,{4}E8,{8}B7,B6,
{4}B5,C,B1,5-2[8:1]/1-6[8:1],
{8}5x/1x>8[4:3],,,5h[8:3],,,,,,5x,
5/1,2x,3/6,7x,8v5[8:1]/5v2[8:1],7x,
{4}5b/8b,{24}E3/E6,B6/B3,B7/B4,E8/E5,,,{4}8x/5x,7/4,
{8}6/3,5,6/3,2-6[8:1],,2x/4x-8[8:1],,4,
,2x/B7,3,B6/4x-1[8:1],,4/5<2[8:3],,5x/3h[8:3],
,,,3<6[8:1],,1-7[8:1]/3-1[8:1],,1b/3b>5[8:7],
,,B3,B4,,B1,B2,B3,
{4}B4,C,B8,8-3[8:1]/4-7[8:1],
4x/8x,E6/E2,B5/B1,C,
{8},7/3,,6/2,,5/1,,8x/4x,
1,2x/5x,3,4x/6x,7/3,8x/4x,5-2[8:1]/1-6[8:1],4/8,
{1}Cf/1bp7[2:7]/5bp3[2:7],
,C,
C,
{4}C,{8}B8,B7,,B4,{4}B3,
E6/E2,E7/E3,E8/E4,E1/E5,
C,{8}B1,B2,,B5,{4}B6,
E7/E3,4/Cfh[4:3],3,2,
{8}1b,,,1,{4}8,8/1,
{8}8/1h[2:1],7,6,5,{4}4,4/1,
{8}2/4h[8:3],,,3,{4}3-8[8:1],3/4<7[8:1],
{8}4x,3,2,1,{4}8x-3[8:1],8/7-4[8:1],
7-2[8:1],{8}7/3x,3,,4x,{4}4x,
5/6,4/E7,3/B7,2/B8,
{1}1xz5[2:3]/8xs4[2:3],
{16},,,,,,,,,,,,,,,,4,
5,4,5,{8}4,{16}6,5,6-1[8:1],5,,,{4}6,
{16}2,3,4,5,,,8,7,6-2[8:1],5,,,{4}6/4,
{16}3/8,7,6,5,,,1,2,3-7[8:1],4,,,{4}3/5-1[8:1],
{8}5,4,3,2,{4}8/1,{16}1,8,1,8,
1,2,3,8,7,6,{8}B4,B3,B2,B1,B8,
B7,B6,{4}B5,{8}3,4,{4}3-1[8:1]/4-6[8:1],
{8}4/3,,,8/7-4[8:1],,8/7,1,2,
,3/4,{4}5-8[8:1]/2-5[8:1],5/2,7/4,
{32}4bx/7bx-3[8:1],6/3,{16}5/2,,,{8}7,8,1-5[8:1],2h[8:1],1,{16}2,3,
{8}4,{16}6,7,8/1-6[8:1],2,3,4,{8}1/5h[8:3],,,E7,
B7,2/B8,3,4h[4:1],{16},,5-2[8:1],6,7,8,{8}5/1h[8:1],
{16},,1-4[8:1],8,7,6,{8}5h[8:1]/1-6[8:1],,1/5<3[8:9],,5b,
C,{16}B2,B3,{8}B4,E6,B5,B4,{4}B3,
{8}C,B2/B1,{4}B6/B5,{8}B7,B3,{4}E3/B2/Ch[4:3],
4,3,2,1h[4:1],
8,7/1,6/1,1/5,
2h[8:1]/6h[8:1],3h[8:1]/7h[8:1],6h[8:1]/B2,3h[8:1]/B7,
{8}6b/2b,4,3b/7b,5,{4}6h[8:1]/4h[8:1],7h[8:1]/3h[8:1],
{16}2x,8,2,8,1x,7,1,7,2x,6,2,6,3x,5,3,5,
{8}4b,,,5/3,6/2,1/7<4[8:1],8,7b/1h[8:3],
{16},,,,4,5,6,7,8/1-6[8:1],2,{8}3-8[8:1],1,3b-7[8:1],
{16},,6/3-1[8:1],5,{8}4h[8:1],3b,{16},,4,5,6,7,8h[8:1]/1bv6[8:1],2,
{8}3h[4:1],1,{16},,2,3,{4}4h[4:1],{16}8,7,{8}6h[8:1],
{4}5>1[8:1],{16}5/8,7,6,5,,,5x,6,7-3[8:1],8,2/1,3,
{4}4h[4:1]/7b-5[8:1],{8}7,{16}4,3,2,1,8/7,6,{8}5b/4,4b-1[8:1],
,4/5-8[8:1],,5,{16},1x,2,3,{32}8x/4x,7,6,5,4,3,2,1,
{8}8b,B1,B2,7h[8:3],B3,B4,{16}E7,B6,{8}B5,
{16},,B1,B2,{4}E3/Ch[4:1],{8}4,3<6[8:1],2,3b/1h[8:1],
{16},,8,7,{4}6/1-4[8:1],{8}5/1b,6h[4:1],{16},,5,4,
3,2,1,8,{8}7/6h[8:1],{16}7b,8,1,2,3/6,5,4,3,2,1,
{4}4h[4:1]/8b-4[8:1],8,{16}2,3,4/7,6,5/1,2,3/8,7/4,
{4}6h[4:1]/5-2[8:1],{8}5x,6x-1[8:1],,6,{16}2,3,4,5,
1b/6h[8:1],8,{8}7h[4:1],{16},,6b,5,4,3,2,1,{4}8h[4:1]/7b-5[8:1],
7-3[8:1],7/8-4[8:1],8,{16}8,7,6,5,
{8}4h[4:1],3,2x,1/4,5-1[8:1],6x/2x,{4}5/7h[4:1],
{16},,8,7,{4}6h[4:1],{8}5,7-4[8:1]/3-8[8:1],6/2,7b/3b/Cf,
{24},,,,,,1/5-1[8:1],6/2,3/7,4/8h[8:1],,,{8}5,8-4[8:1],,8b,
{16},,1b,2,{8}3h[8:1],{16}4b,5,{8}6h[2:1],{16}5b,4,3,2,1,8,
{4}7h[4:1],{24}6b,5,4,3,2,1,{4}8h[4:1],{16}1-5[8:1],2,{8}3,
{4}1b/8-4[8:1],8b/1-3[8:1],1b/8-6[8:1],8b/1,
{16}4x,5,4,5,{8}4,{16}6x,3,6,3,{8}6,{16}1x,2,3,4,
{8}5,{16}7x,8,7,8,{8}7,{16}1x,6,1,6,{8}1,{16}7x,6,
5,4,{8}3x/2h[4:1],{16},,3x,4,5,6,{8}7h[8:1],{16}8x,1,2,3,
{8}4h[8:1],{16}5x,4,5,4,{8}5h[8:3],{16}4x,3,2,1,{8}8h[2:1],7,
6b,5,4b,4h[8:1],{16}8x,1x,2x,3x,{8}4h[2:1],5,
6b-8[8:1],7x,6b,5h[4:1],{16},,8x,1,2,3,4,5,
{8}6xh[4:1],7,8x,1/5h[4:1],{16},,1x,8,7,6,{8}5h[4:1]/1b-4[8:1],
,1-6[8:1],3,1,,7x,{4}7xh[4:1],
{16}8b,1,2,3,{8}4h[8:1],{16}5b,6,7,8,{8}1h[8:1],{16}2b,3,4,5,
6,7,8,1,{4}2h[4:1],{16}1b,8,7,6,{8}5h[8:1],{16}4b,3,
2,1,{8}8h[8:1],{16}7b,6,5,4,{8}3h[2:1],7h[8:3],{24},,,,,,,8/4,
1/5,6-1[8:1]/2-5[8:1],,,,,,{8}6b/2b,{24},,,,,,5/1,8/4,7/3,6-1[8:1]/2-5[8:1],,,,,,{8}2b/6b,
,,5/1,4/8,8/4,7/3,
{24}6b/2b,3/7,4/8,1p1[4:5]/5p5[4:5],{1},{4},,{16},,,{48},{8}B2,
B3,B4,B7,2/B6,3-1[8:1],4-6[8:1],3v8[8:1],4,
{4}3,{8}7h[4:1],{32}8x,1,2,3,{8}4,{32}7x-2[8:1]/3x-6[8:1],6/2,5/1,4/8,,,,,{8}7x/3x/C,
E
