&title=黒塗り世界宛て書簡
&artist=フロクロ
&first=0.05999999
&des=mmfc
&des_5=
&lv_5=13+
&inote_5=(185){4},,,,6/5,
5/4,{8}4/3,3,4,4h[4:1],
,5,{4}4/5,6/3,6h/3h,
3/5,4/3,{8}3/2,1/2,,8h[2:3]/1h,
,1h,,1h,,1h,,1h,
,1h,,1-7-2[4:1],{2}1/8-5[8:1],
{4}3/4,3/4,{8}4/3,3,4,5,
6h[8:1],7,6h[8:1],5,6h[8:1],7,6h[8:1],5,
{4}3/6,6/3,{8}6/3,5,4,3,
2h[8:1],1,3h[8:1],4,2h[8:1],1,{4}4/3,
5/3,3/5,{8}3/5,4,5,6,
7h[8:1],8,7h[8:1],6,7h[8:1],8,7h[8:1],6,
{4}1/8,2/1,{8}3,4V63-1-5[4:3],5,7b,
,,,,,,{4}6h[1:1],
{1}Ch[4:3],
{8}6,5,4,3,2-4[0.3243##0.1622],2,{16}5-7[0.3243##0.1622],,{8}5,
1-5[8:1],1,{4}8-2-7[4:1],{8},5s1[4:1],,6,
,8x,7,6,5,4,3,2,
{2}1h[4:1]/Ch[4:1],{8}1-3[8:1],1,5,6,
7-5[8:1],7,4,3,2-4[8:1],2,6,7,
8-4[8:1],8,{4}1V72[4:1],{8},5s1[4:1],,7,
,8x,7,6,{16}5x,4,{8}5,{4}6x/3x,
{2}2-4[8:1]/4-2[8:1],{4}7-5[8:1]/8v5[8:1],8x/7x,
{2}2-4[8:1]/4-2[8:1],{8}1h,1h,{4}1h,
{2}4-2[8:1]/2-4[8:1],{4}7-5[8:1]/8v5[8:1],8x/7x,
{8}B1,B5,B3,B7,C,{16}4x,5,{8}4,6x/3x,
{4}Ch[8:1],{8}5,5,6-8[8:1],6,4,4,
3-1[8:1],3,6,6,7-3[8:1],7,{4}1>5[4:1],
5<1[4:1],1>5[4:1],5<1[4:1],1V35[4:1],
5-7-1[4:1],1-3[8:1],,C/B7/B2/B3/B6,
5/6h[4:1],3,{8}5,4,{4}3/5,
4/2h[4:1],1,{8}3,5,{4}6/4,
6-8[8:1],5,1-3[8:1],8,
{8}4,5,6,7,{16}8x,1,{8}8,{4}7x/2-5[8:1],
1,7-4[8:1],8/7,1-5[8:1]/2-4[8:1],
2x/1x,8-4[8:1]/7-5[16:3],8x/7x,{16}1x,8,{8}1,
2x/7,3,7/5,6,4/2,3,8/5,6,
1-4[8:1]/4-1[8:1],3x,,,{4}8xw4[8:1],8b,
{8}2-4[8:1],2,6,7,2-5[8:1],2,7,8,
2-6[8:1],2,8,1,2x-8-6[8:1],2x,{4}3,
{8}4-8[8:1],4,{4}5-3-6[4:1],{8},8z4[4:1],,1bx,
,1,2,3,{16}4x,5,{8}4,{4}6/3x,
{8}7-5[8:1],7,4,3,7-4[8:1],7,2,1,
7-3[8:1],8,7x-4[8:1],1,7x-5[8:1],2,7x,3,
8x-4[8:1],8x,{4}4V63[4:1],{8},1s5[4:1],,8bx,
,8x,7,6,{16}5x,4,{8}5,{4}3x/6x,
{8}B6/B3/Ch[4:1],,,6,5,4,3,2,
{6}1x/C,1x/C,1x/C,8x/B1,7x/B2,6x/B3,
{8}5x/4x,{16}6,5,{8}6,{16}3,4,{8}3,{16}6,5,{8}7,{16}2,4,
{8}3,7x/5x,6,4x/2x,3,{24}5x,4,6,{4}5-1[8:1],
{8}6,7,8-4[8:1],8,1,2,3-7[8:1],3,
4,5,6-2[8:1],6,7,8,{4}1x>5[4:1],
5V71[4:1],1-3[8:1],{2}5w1[8:1],
{4}3x/7h[4:1],5,{8}4,5,{4}6/4,
5/7h[4:1],8,{8}6,4,{4}3/5,
3-1[8:1],4,8-6[8:1],1,
{8}5,4,3,2,{16}1x,8,{8}1,{4}7x/2-5[8:1],
1,7-4[8:1],8/7,1v4[8:1]/2-5[8:1],
2x/1x,8v5[8:1]/7-4[8:1],8x/7x,{16}1x,8,{8}1,
2x/7,3,7/5,6,4/2,3,8/5,6,
{4}1/B5/B6/E6f,7/B3/B4/E4f,{32}2x/6,3,4,5,6,7,8,1,{4}2bx/Cf,
{8}7-5[8:1],7,8,1,2-4[8:1],2,1,8,
7-5[8:1],7,8,1,2,{24}5x,3,6,{8}4-2[8:1],4,
8-4[8:1],8,3-7[8:1],3,5s1[4:1],5,{32},,,,,,,,2x,
3,4,5,6,7,8,1,2,3,4,5,6,7,8,1,{4}6x/2-6[8:1],{8}2bx/8,7h[4:1],
8,2h[4:1],1,6h[4:1],7,3h[4:1],2,5h[8:1],
6,{24}4,3,5,{8}4-8[8:1],4,{4}2-7[8:1]*-5[8:1],2bx,
{8}6-2[8:1],6,5,4,3-7[8:1],3,2,1,
8-4[8:1],8,7,6,{4}5w1[8:1],5b,
{8}7x-3[8:1]/3x-7[8:1],7x/3x,,,1-3[8:1],1,{4}3x,
{8}4-6[8:1],4,{4}6x,{8}7-1[8:1],7,{4}1x,
{8}2-5[8:1],2,5bx,7-4[8:1],7,4bx,1-5[8:1],1,
5bx,8,2/7,6,2/4,3,5/7,6,
4/1x-3[8:1],1,{4}4x,{8}5/1x-4[8:1],1,{4}5x,
{8}6/1x-5[8:1],1,{4}6x,{8}4/7,6,2x/4-8[8:1],3,
{1}7b/4V63-1-5[4:3],
{4}4h[8:1],4h[8:1],4h[8:1],{8}4/5,5/4,
{4}6/3,3/6,{8}6/3,6,5,4,
3h[8:1],2,3h[8:1],4,3h[8:1],2,3h[8:1],4,
{4}5/3,3/5,{8}3/5,4,5,6,
7h[8:1],8,6h[8:1],5,7h[8:1],8,{4}5/6,
4/6,6/4,{8}6/4,5,4,3,
2h[8:1],1,2h[8:1],3,2h[8:1],1,2h[8:1],3,
{4}1/8,2/7,{8}6,5-3-6-8-4[8:7],4,2,
,,,,,,,,{4}3h[1:2],
5,,5,
,5,,5,
{2}5-3[8:1],1-3[8:1],
7-5[8:1],1-5[8:1],
{4}6h[1:2],5,,5,
,5,,5,
{2}4-2[8:1],7-5[8:1],
{4}1s5[2:1],,,3x-5-2-6-1-7-2-6-3-5[1:5],
{1}C,
E
