&title=U.A.D
&artist=HAYAKO
&first=0
&des=σ^2/dx
&lv_5=13+
&inote_5=(129){1},,
{4},,,
{32},,,,,,,B8,
{4}B1,{8}4,4,
{16}3,5h[4:1],,4,,4,,
{32}B1,B8,,,,,{8}6,6,7,
{16}1,1,,3,,7,
{32},,,B8,
{4}B1,{8}8,8,
{16}6,4,,3p6q3p7^2[16:15],,3/5h[16:15],,,
{1},
{16}3xb/B5,,,3,
B5,,3,,
B7,4,,4,
B7,4,,2,
B6,,2,,
B6/2,,2,,
B8,3,,3,
B8,3,,,
{16}B2/5x,,,5,
B2,,5,,
B4,7,,7,
B4,7,,8,
B3,8,8x,,
B3/8,,8x,,1,7,1,7,2,6,2,6,
{4}3xv1^2-4[16:6],3/5v8[8:1],5^6-1[8:1],5,
{4}2xv4^3-1[16:6],2/8v5[8:1],8^7-4[8:1],8,
{4}6xv8^7-5[16:6],6/4v1[8:1],4^3-8[8:1],4,
{4}7xv5^6-8[16:6],7/1v4[8:1],1^2-5[8:1],1,
{4}7h[2:1]/3,C,5h[2:1],B8,4h[2:1],E3,2h[2:1],B5,
{4}6h[2:1],Cf,4h[2:1],B8,6h[2:1],A1/D2,2-5v4[4:1],B8/B7,
{4}7pp4[2:1],2,B3/E3,2,
1pp5[2:1]/8,7,E7/B6,7pp2[1:1],
{1}Ch[1:1],
{8},,,,26,26,1v2[8:1]/5v6[8:1],,
{4}1bv3[8:1]/5bv7[8:1],1xv2[8:1]/5xv6[8:1],1xv3[8:1]/5xv7[8:1],1x/5x,
{32}2bxp3b[32:5],4x,2x,4x,2x,,,,{4},
{32}7bxq6b[32:5],5x,7x,5x,7x,,,,{4},
{32}2b/8b,B2,Ch[4:3],,{8},
{32}6x,B6,,,{8},
{32}3x,B3,,,{8},
{32}7x,B7,,,{8},
{32}1x/8x,27,36,4-7[12:1]/5-2[12:1],{8},{4},
{32}6x,5x-8[8:1]*^4-1[8:1],6x,5x,{8}6x,{4},
{32}2b/C,3x/B5,4x/A5,,{8},
{32}2x/C,3x/B5,4x/A5,,{8},
{32}2x/C,3x/B5,4x/A5,,{8},
{32}2x/C,3x/B5,4x/A5,,{8},
{32}6bx^3b[8:1]/7x,8x,1x,2x,3x,,,,{4},
{32}3bx^6b[8:1]/2x,1x,8x,7x,6x,,,,{4},
{32}5b/1x,2x,3xh[32:6],,{8}1,5h[4:1],8,4h[4:1],8,6h[8:1],7,
{32}1x/8x,27,36,4-7b[12:1]/5-2b[12:1],{8},{4},
{32}6x,5x-8b[8:1]*^4-1b[8:1],6x,5x,{8}6x,{4},
{32}2b/7b,3x/6x,4xh[32:6]/5xh[32:14],,{8},{4},
{32}E3,2x,,,{8},{4},
{16}6h[16:4],,,,,6,,,
{32}E3,2x,,,{8},{4},
{2}5h[16:6],
{32}E3f,2x,E4,,{16}E5,E6,E7,E8,E1,E2,
{16}B4,B3,B2,B1,B8,B7,B6,B5,
{16}8x,1x,2x,3x,4x,5x,6x,7x,
{4}8xbz4[8:1],,
{32}E3,2x,,,{8}8,8,8h[16:7],
{16}3h[16:4],,,,,3,,,
{32}E3,2x,,,{8}7,7,7,
{8}6h[8:2],,,6,
{32}E3,2x,,,{8}5,,5,
{4}4w8[8:5]/3,,,,
{24}1x,2x,3x,1x,2x,3x,1x,2x,3x,1x,2x,3x,
{24}4x/1xbh[4:1],E4,B3,C,B5,E5,B4,C,B8,E8,A7,A6,
{24}2x,3x,4x,2x,3x,4x,2x,3x,4x,2x,3x,4x,
{24}5x/2xbh[4:1],E5,B4,C,B6,E6,B5,C,B8,E8,A7,A6,
{24}1x,2x,3x,1x,2x,3x,1x,2x,3x,1x,2x,3x,
{24}4x/1xbh[4:1],E4,B3,C,B5,E5,B4,C,B8,E8,A7,A6,
{24}1x,2x,3x,1x,2x,3x,2x,3x,4x,2x,3x,4x,
{48}5xbh[24:10]/3b,A2,D2,A1,D1,A8,
D8,A7,D7,A6,D6,,
D5,A4,D4,A3,D3,A2,
D2,,,,,,
{24}8x,7x,6x,8x,7x,6x,8x,7x,6x,8x,7x,6x,
{24}5x/8bh[4:1],E6,B6,C,B4,E5,B5,C,B1,E2,A2,A3,
{24}7x,6x,5x,7x,6x,5x,7x,6x,5x,7x,6x,5x,
{24}4x/7bh[4:1],E5,B5,C,B3,E4,B4,C,B1,E2,A2,A3,
{24}8x,7x,6x,8x,7x,6x,8x,7x,6x,8x,7x,6x,
{24}5x/8bh[4:1],E6,B6,C,B4,E5,B5,C,B1,E2,A2,A3,
{4}4xbqq1[8:5]/5xbpp8[8:5],,,,
{2}1xq8[8:5],E5,2xv1-3[8:5],E5,7x^6p7[8:5],E5,
{4}7v5[8:1]*-5[8:1],7-3-1-7b[8:3],Cf,,
{16}1x/8,,,,B1/E2,,6,,E3,6,,6,B3/E4,6,,7,8x/1,,2,,B8/E8,,3,,E7,3,,3,B6/E6,3,,2,
{8}1/8h[8:1],2,1/3h[8:1],8,5/7h[8:1],4,2/5h[8:1],1,
{16}7,8,7,8,6,1,5,2,
{16}35,35,35,35,35,35,35,35,
{16}3^2-8[8:1]/5,,,,3/7^5[12:1],,,7/1^2-6[12:1],,,1^7[12:1]*-4[12:1],,,1,,,,,6-8^1[12:1],,,6/4^2[12:1],,,7-5[16:1]/4,,,1v4^5[8:1]/7,,,1x,,
{16}1xb-7^6[8:1],,,,1/2-4^5[12:1],,,2/8-4[12:1],,,8-2^3[12:1]*-6^5[12:1],,,8,,,,,7-5^4[12:1],,,2-6[12:1]/7,,,2/8-4^3[12:1],,,1^2-5[12:1]/8,,,1,,
{16}6b,7x,8x,1x,2xh[8:1],,8,,2,2h[8:1],,1,,
{16}7,8,6,
3,4,2xb,4,3,6xb,3,4,1xb,4,3,8xb,3,4,1xb,
{32}1,B6,
{4}B5,{8}34,3,
{16}2,8h[8:1],,1,,17,,
{32}B2,B6,,,,,{8}78,7,61,
{16}2,8,2,8,3,7,3,7,
{16}1b,6,5,
8xb,5,6,
8xb,8,7,1,6,2,
{16}8b,3,4,
1xb,4,3,
1xb,1,2,8,3,7,
{16}1b,6,4,
1xb,4,6,
1xb,1,7,2,6,3,
{16}Cf/4bh[8:1],,,1bh[8:1]/B6/B5/E6f,,,7bh[8:1]/B2/B1/E2f,,,3bh[8:1]/B7/B8/E8f,,,8bh[8:1]/B5/B4/E5f,,,2bh[16:5]/E7f/B6/B7,,,,,C,,
{1}A7/E8/B8/B1/E2/A2/B7/Cfh[128:1]/B2/B6/B3/B5/B4/E5/E3/E7,
&inote_6=
