&title=incomplete the one
&artist=Halv feat Kuroa*
&first=0.069
&des=愛ンスタ
&lv_5=14
&des_5=愛ンスタ
&inote_5=
(208){4},{12},,,,,,,,,2,
E3,E4,A6,E7,E8,A1,E2,E3,A5,E6,E7,
E2,E3,E4,E6,E7,E8,E3,E4,E5,E7,E8,E1,
B2,B3,B4,B5,B6,B7,A3,A2,A1,A8,A7,A6,
{1}Ch[2:1],
{4}1b/6,5,{8}4,4,5,6/2-4[8:1],
,2,{4}5h[4:1],{8}4,4,{4}6,
1/7,5,{8}4,4,7h[2:1],3,
,2,{4}2,{8}5/1,5,{4}4/7,
8/2,4,{8}5,5,4,3/7,
,4,{4}4,{8}7,7,{4}5-2[8:1],
{1}E5f/5<4[4:7],
,,,{8}4,
,,4qq4[8:7],,,,,,,,,,,,,4,
,,4pp4[8:7],,,,,,,,,,,,,8/6,
,,6/8pp8[8:7],,,,,,,,,{2}7,
{8}8/2,,,2/8qq8[8:7],,,,,,,,,{2}Ch[4:1],
{4}5h[4:1],2h,{8}5,5,{4}2h,
{8}6,6,{4}3h,{8}7,7,{4}4h,
{8}8/1h[8:1],,,4/3h[8:1],,,{4}6/5h[8:1],
{8},7/8h[8:1],{24},,,,,,{6}1/2,{12},,3,4,
{8}5<8[12:1],,,2>5[8:1],,,{4}7>2[8:1],
{8},4p6[8:3],,,,,,,7,
{16}4,5,{8}3,{16}5,4,{8}6,{16}4,5,{8}2,{16}5,4,
{8}7,Ch[8:3],,,,,,8b/2,
,,{4}7/4,{8}8,7,{4}6/5,
{8}2,3>7[8:1],{4}4/5,{8},3,,8,
,,{4}2/5,{8}1,2,{4}3/4,
{8}7,6<2[8:1],{4}5/4,{8},6,,1b>7[8:13],
,,,,,,,,,,,,,,,C,
,6,5/1,{16}2,4,{8}3,7/4,{16}6,5,{8}6,
4/1,{16}2,4,{8}3,7/4,{16}6,5,{8}6,1/8,7b-4>1[8:5]/2b-5<8[8:5],
,,,,,,,,2/7,
{16}E6,E7,E8,E1,E2,E3,E4,E5,{8}E6h[16:0],,1-5[16:1],
,,{4}3bx/7bx,{8}3-8[8:1],7v4[8:1],3,7,
,8,1/6x,2,{4}3x-7[16:3]/8x-4[16:3],{8}3/8,C/B7/B4,
,6,{4}3,{8}2-5[8:1],7-2[8:1],2,7,
,5,8x/4,7,6/1x,5w1[8:1],,C,
,,6/4,7,5/3-8-3[4:1],2,3/E8,E6,
,7,{4}5/8-5[8:1],{8}8/4-1[8:1],3,{4}4-6[8:1],
4-7-4[4:1]*-1-4[4:1],4x,{8},6/2-5[8:1],{16}3,5,{8}2x,
,7,6/3,{16}2,4,{8}3,{16}5-8[8:1],4,{8}6,7h[8:3]/5bq3[8:3],
,,,,{4}7-4-7[4:1],{8}3,3h[8:3],
,,{4}6,{8}3,{16}1-5[8:1],2,1,2,{8}1`C,
,,,1h[8:1],{4}8-3[8:1],8/2-5[8:1],
2,{16}6,4,{8}8b,{16},,3,5,{4}1b,
2/6h[4:1],{8}3,4/7,{16}5,6,5,6,3,4,3,4,
8,1,2,3,8,7,6,5,4/3-5[8:1],,,3x/1x-4b[16:3],,,{8}8x,
{4}1x/7x<4[16:3],{16}3,2,1,8,3,2,1,8,7,6,5,4,
{2}Ch[2:1],8x,
(198){1}B5/B4,
B7/C/B2/A2,
B5/C/A8/B8,
B3/C/B6/A6,
(188)C/B1/A4/B4,
E8/C/E3/D3,
(178)E7/C/E2/D2,
(168){2}E6/C/E1/D1,{12}5x,6x,7x,8x,1x,2x,
(79){16}3x>6[8:1],,,4,{4}B7/E7/B6,{16}8<4[12:1],{32}3,4,,,{16}6,{4}B2/E3/B3,
{16}6<3[8:1],,,5,{4}B2/B3/E3,{48}1>5[12:1],8,2,7,{96},{32}1,,8,{16}2,{4}B7/E7/B6,
{16}4p8[12:1]/5q1[12:1],,,3/6,{4}A5/D5/A4,{16}8V64[12:1]/1V35[12:1],{32}4,5,,,{16}3,{4}A8/D1/A1,
7h[16:3]/2h[2:1],B6/E6,{8}Ch[4:1],,,2h[#0.3797531],
(208){64}8bx/E3,B3,{32}B4,,,,,,,{4}6,{8}6v1p5[4:1],5,4,2,
,4,{4}3/8,{8}8-4[8:1],7,{4}6,
{8}2,4,3,6,{16}1,2,3,4,1,8,7,6,
5,4,8,1,2,3,4,5,8,7,6,5,7,6,5,4,
{4}8/3x,2,{8}3v8q4[4:1],4,5,7x,
,5,{4}6/1,{8}1-5[8:1],2,{4}4x,
{8}2,{16}5,6,7,8,4,3,2,1,4,5,6,7,1,8x,
1,8,1,8,1,2,3,4,6,5x,7,4,{4}8b-5[8:1],
3,{8}4-8[8:1],3,{4}2/4x,{8}6,7/4,
,3,2v5[16:3],1,{4}2x/8h,6,
3,{8}5-1[8:1],6,{4}7/5x,{8}3,2/5,
,6,7v4[16:3],8,{4}7x/1h,{16}3,5,4,6,
{4}5h[8:3],8,{8}6,5,4/3,4/2,
{16}B5,B6,{8}E7,{4}3,{8}2h[8:1],8-3[8:1],,8b<1[8:13],
,,{4}A1/B1,A2/B2,A3/B3,
A4/B4,B5/A5,B6/A6,B7/A7,
{8}8,6/4,,5,{4}1/7,{8}4/6,8/1h[8:1],
{4}Ch[8:1],{16}A2,E3,E4,A4,,,E6,E7,{8}A7,4bx,
,,{4}4-6[8:1],{8}B2/E3/B3,,,5,
,,{4}5-3[8:1],B7/E7/B6,{8}5b/2bx,3bh[4:1]/7bh[8:1],
,7,{4}3,{8}6-3[8:1],2-7[8:1],6,2,
,5x,6/2x,3,8x/4,5-2[8:1]/1-6b[8:1],,Cf,
,,8/4,6,8/2-5-2[4:1],4,2/E6,E8,
,6,{4}1/5-8[8:1],{8}5b/2-5[8:1],3,{4}2b,
1b-6-1b[4:1]/4b-1-4b[4:1],1b/4b,{8},3x/8x-5b[8:1],{16}2,7,{8}8x,
,6,3/5,{16}6,8,{8}7,{16}1-4[8:1]*-4[8:1],8,{8}2,4x/1bq7[8:5],
{16},,,,,,,,,,,,,,,,1,
8,1,8,1,8,1,8,1,8,{8}1-5[16:1],{32},,,,A1,C,{16}B5,
,,,,,,{8}4,{2}1b/E7/A7/A6/D7f,
{8}3/5,6h[8:1],{16}8,1x,{8}2bx,{16},,1/7,2x,3bx,6,5,6,
{8}Ch[4:1],{16},,,,4,3,{8}6b,2-4[8:1],7/1,2b-5[8:1],
8,2b/6,7-4[8:1],{16}6,1,{8}7b,8,1,2/6,
7h[4:1],{16},,,,4,5,{8}2b,8<6[8:1],3/1,8b-4[8:1],
5,3/8b,2-7[8:1],{16}3,5,{4}2b,{16}1x-5[8:1],5x,{8}1x,
{1}5x-3>7b[0.4327##1.0096]/1bx-7<3[0.4327##1.0096],
{6},,,8/4,1/5,6-2[6:1]/2-6[6:1],
{1}6x-4-1<7[0.4327##1.0096]/2x-8-5>3b[0.4327##1.0096],
{2},E1/E5,
{1}7/B1/Ch[1:1],
B2/D7/E7,
B3/D6/E6/Ch[1:1],
B4/E5/D5,
B5/D4/E4/Ch[1:1],
B6/D3/E3,
B7/E2/D2/Ch[1:1],
{16}E1,D1,
E
