&title=カーテンコール
&artist=優里/TVアニメ「僕のヒーローアカデミア」第7期第2クールOPテーマ
&first=0.01
&des=Ragna
&wholebpm=142
&demo_seek=62.1
&demo_len=13
&des_5=Ragna
&des_7=初稿のRagna
&lv_5=12+
&lv_7=蔵
&inote_5=(142){4},,,,,
5xh[4:3]/3xh[4:1],,4xh[4:3],,
6xh[4:3],,5xh[1:2],,6x-4[8:1],,6x-4[8:1],,6xV47[4:1],,,,
4xh[4:3]/6xh[4:1],,5xh[4:3],,
3xh[4:3],,4xh[1:2],,5x^3[8:1],,5x^3[8:1],,5x^3-8[4:1],,,,{16}
45,,3,4,3,4,3h[2:1],,,,E1,,E8,,E7,,
45,,6,5,6,5,7h[2:1],,,,E1,,E2,,E3,,
45,,3,4,2,4,{8}1h[2:1],,E4,E5,6h[4:1],
,5,74,6,35,2,34,5,{4}
6xh[4:1]/4xh[4:1],,2xh[4:1]/5xh[4:1],,
6xh[4:1]/5xh[4:1],,2xv3-5[4:1]b/5xh[4:1],,
7xh[4:1],,6xh[4:1]/4xh[4:1],,
2x-4[8:1]/4xh[4:1],2x-6-4[4:1],6xh[4:1],,
5xh[4:1]/3xh[4:1],,7xh[4:1]/4xh[4:1],,
3xh[4:1]/4xh[4:1],,1x-4[8:1]/5xh[4:1],,
6xh[4:1]/5xh[4:1],,8x-5[8:1]/4xh[4:1],,
2x-5[8:1]/4xh[4:1],2x>7[4:1],4xh[4:1],,{16}
2h[4:1],,,,4,,3,3,6h[4:1],,,,5,,7,7,
4h[4:1],,,,6,,7,,8,,1,,2,,3,,
4^1[8:1],,,,7-4[8:1],,,,8^3[8:1],,,,5-8[8:1],,,,
4<3[2:1],,,,,,,,,,,,,,,,
7h[4:1],,,,1,,6,6,3h[4:1],,,,4,,2,2,{8}
5h[4:1],,3-5[8:1],,7-3[8:1],,2-6[8:1],,
4-8[8:1],,1-5[8:1],,7p4[16:7],,,,
,,,1,24,3,45,6,
7h[4:1]/3h[4:1],,,2/8qq3[2:1],2h[8:7]/8,,,,
,,,5,26,3,45,6-4-2[4:1],
6h[4:1],,,7-4-2[4:1],7h[4:1],,,8-4-2[4:1],
8h[4:1],,,7,7,{16}E2,E6,E3,E7,E4,E8,{8}
Ch[1:1],,,,,,,,
5h[2:1],,,,6-1[8:1]b,,8bh[4:1],,
2,2,64,64,25,25,84,84,{16}
1b/B6f,,,8b/E4f,,,1b/B5f,,,,,,,,,,
3b-5-2-8[4:1]/6,,,1b,,,7b,,,,6,,5,,4,,
6b-4-7-1[4:1]/3,,,8b,,,2b,,,,3,,4,,5,,
6x-3[8:1]/2x-7[8:1],,,,6x/2x,,,,7x-2[8:1]/3x-6[8:1],,,,3x/7x,,,,
8-6[8:1],,2^3-5[8:1],,8-4[8:1]b,,2,,8,,1,,5,,4,,
7b-4-6^1[4:1]/2,,,5b,,,3b,,,,2,,4,,5,,
2b-5-3^8[4:1]/7,,,4b,,,6b,,,,7,,5,,4,,
2x^3-5[8:1]/8x-4[8:1],,,,2x/8x,,,,7x^6-4[8:1]/1x-5[8:1],,,,7x/1x,,,,
36,,2,,1s5[8:1]b/8-4[8:1],,7,,C,,,,3,,6,,
2h[8:3]/8,,,4,,,6,,7h[8:3]/1,,,5,,,3,,
2h[8:3]/8,,,4,,,6,,71,,6,,45,,3,,
2x-6-2[4:1]/6x,,,,2x/6x,,,8x,8xw4[8:1],,,,8x,,,,
26,,5,,3pp4[4:1]*V14[4:1]b/4,,2,,B3,,,,,,,,
6h[8:3]/5,,,8,,,2,,3h[8:3]/4,,,1,,,7,,
6h[8:3]/5,,,8,,,2,,34,,2,,18,,7,,
6x/3x^6^3[4:1],,,,3x/6x,,,7x,{8}7xp2[8:1],,7x/2x,,
1x,28,37,46,7^6-4[8:1]/3^2-8[8:1]b,,7-3[8:1]/3,,
,,,,,,,,
E
&inote_7=(142){4},,,,,
4x<3[2:3]/5xh[2:7],,,,,,,,4x^6[8:1],,6x^4[8:1],,4x-6-3[4:1],,,,
6x>7[2:3]/4xh[2:7],,,,,,,,6x^3[8:1],,3x^6[8:1],,6x-3-7[4:1],,,,{16}
45,,3,4,3,4,3h[2:1],,,,8,,7,,6,,
45,,6,5,6,5,6h[2:1],,,,4,,3,,2,,
18,,2,1,2,1,{8}2h[2:1],,5,6,7h[4:1],
,8,16,5,34,2,18,7,{4}
6h[4:1]/4h[4:1],,2h[4:1]/5h[4:1],,
6h[4:1]/5h[4:1],,2v3-5[4:1]/5h[4:1],,
7h[4:1],,6h[4:1]/4h[4:1],,
2-4[8:1]/4h[4:1],2-6-4[4:1],5h[4:1]/2,,
7h[4:1]/3h[4:1],,1h[4:1]/5h[4:1],,
8h[4:1]/2h[4:1],,1-5[8:1]/5h[4:1],,
6h[4:1]/4h[4:1],,7-3[8:1]/3h[4:1],,
2-5[8:1]/4h[4:1],2>7[4:1],4h[4:1]/2,,{16}
2h[4:1]/8,,,,4,,3,3,6h[4:1],,,,5,,7,7,
4h[4:1],,,,5xh[4:3],,3,,2,,1,,8,,7,,
6-1[8:1],,,,7-4[8:1],,,,8-3[8:1],,,,5-8[8:1],,,,
4<3[2:1],,,,,,,,,,,,,,,,
7h[4:1]/4,,,,1,,6,6,3h[4:1],,,,4,,2,2,{8}
5h[4:1],,3pp5[8:1],,6qq4[8:1],,2p5[8:1],,
7q4[8:1],,1-5[8:1],,8>7[2:1],,,,
,,,1,28,3,45,6,
7h[4:1]/3h[4:1],,,7qq4[2:1]/3V52-8[2:1],73,,,,
,,,5,26,3,45,6>2[4:1],
6h[4:1],,,7<2[4:1],7h[4:1],,,8<2[4:1],
8h[4:1],,,8,8,{16}1,5,2,6,3,7,{8}
4h[1:1],,,,,,,,
5h[2:1],,,,6z2[8:1]b,,8bh[4:1],,
1,27,36,45,{16}3,7,3,7,{32}2,1,8,7,6,5,4,3,{16}
2b/8b,,,1b/6b,,,8b/4b,,,,,,,,,,
7xh[8:3]/8b,,,5b,,,1b-5-2[16:3]b,,,,6,,7,,8,,
2xh[8:3]/1b,,,4b,,,8b-4-7[16:3]b,,,,3,,2,,1,,
7x-2[8:1]/8x,,,,2x/7x,,,,3x-6[8:1]/4x,,,,6x/3x,,,,
1-3[8:1],,8-6[8:1],,1-5[8:1]b,,8,,1,,8,,4,,6,,
2xh[8:3]/8b,,,4b,,,1b-5-7[16:3]b,,,,4,,3,,2,,
7xh[8:3]/1b,,,5b,,,8b-4-2[16:3]b,,,,5,,6,,7,,
{32}1x,2x,3x,4x,5x,6x,7x,8x,1bxh[32:8],,,,,,,,8x,7x,6x,5x,4x,3x,2x,1x,8bxh[32:8],,,,,,,,
{16}
3v6[8:1],,7-4[8:1],,3-8[8:1]b,,7,,3b,,,,1,,8,,
3^5-1[16:3]b,,,1^7[16:1],,,7,,6^4-8[16:3]b,,,8^2[16:1],,,2,,
3^5-1[16:3]b,,,1^7[16:1],,,7,,6,,5,,4,,3,,
2-6[8:1]/6,,,,26,,,8,8w4[8:1],,,,8,,,,
26,,5,,3pp4[4:1]*V14[4:1]/4,,2,,3,,,,,,,,
7V15[16:3]b,,,5-3[16:1],,,3,,2V84[16:3]b,,,4-6[16:1],,,6,,
7V15[16:3]b,,,5-3[16:1],,,3,,2,,1,,8,,7,,
6/3^6[8:1],,,,36,,,7,{8}7p2[8:1],,72,,{16}
18,,18,,2,6,2,6,{32}3,4,5,6,7,8,1,2,{8}3-6[8:1]b/7-2[8:1],,
,,,,,,,,
E
