&title=Another me
&artist=D_AAN
&first=0.05
&des=RedStone
&lv_5=14
&des_5=RedStone
&inote_5=
(210){4},{1},,,,{4},,,{8}5/4,
3,6,2,7/3,6,2,5,
1,6,4,7,,4h[16:3],5,3,
7,2,6,3,6,2,7,4,
{4}6,{8}2,5,,3,5h[16:1],4,
6,E5,7,E4,6,E3,5,1,
E6,2,E7,3,E8,E4,E7,E3,
E6,E2,6,2,7,3,8h[4:1],4h[8:1],
{16},E8/E4,B7/B3,B6/B2,{4}E6/E2,2bx/6bx,3b/7b,
8b<5[8:1]/4b>1[8:1],8/4,{8}E2/B1/B2,B8/E8/B7,B3/B4/E4,B6/E6/B5,
3,3,4/5,4/5,{4}3/6,{16}3,4,3,4,
{8}2/5x,5/2,{16}6,5,{8}6,4/7x,{48}B3,E4,,,,,E6,B6,,,,,B2,E2,,,,,B7,
E8,,,,,,,,,,,{4}Ch[4:1],{8}7-4[8:1],2-5[8:1],7,2,
,,{4}8z4[8:1]/1s5[8:1],8/1,{8}2>4[8:1],6<8[8:1],
2,6,3,7,{4}4-8[8:1],{8}4,5-7[8:1],
2,5,3-1[8:1],5,{4}3,{16}7<5[8:1],8,7,8,
{4}7,{16}3>1[8:1],4,3,4,{2}3,
{4}A1/Cfh[1:1],D2,A2,D3,
A3,D4,A4,D5,
A5/Cfh[1:1],D6,A6,D7,
A7,D8,A8,B7/B2/E8/E2,
6b/3-8[8:1],6/3,4b/6-1[8:1],4/6,
7b/4-1[8:1],7/4,{8}2b/7-4[8:1],2,2/7,2,
{16}3,5,3,5,2,4,2,4,{32}1b,2,3,4,5,6,7,8,1b,2,3,4,5,6,7,8,
{4}5b/1b-5[8:1],1,3/C,7/C,
3/5q1[4:1],1q5[4:1],5V71[4:1],1V35[4:1],
5<1[4:1],1>5[4:1],5p1b[4:1],1p5[4:1],
5V31[4:1],1V75[4:1],5>1[4:1],1<5[4:1],
5,1,8b/4b,2b/6b,
5b/4p8[4:1],8p4[4:1],4V28[4:1],8V64[4:1],
4>8[4:1],8<4[4:1],4q8b[4:1],8q4[4:1],
4V68[4:1],8V24[4:1],5,6,
{8}5/6,3,4/5,5,4/3,6,4/5,3,
{4}4-2[8:1]/5-7[8:1],4b/5b,{8}8<5[8:1],1-5[8:1],8,1,
,6qq4[8:3],,6,{4}4<7[4:1],2,
1,{8}2v5[8:1],6,{4}2,{8}6v3[8:1],3,
,1-5[8:1],,1,{4}6,3,
8v3[8:1]/1v6[8:1],8b/1b,{8}4>1[8:1],5-1[8:1],4,5,
,7,,7-4[8:1],2-5[8:1],7,{4}2,
6-1[4:1],1x-4[16:3],3,{8}E3/A2/A3/D3,A7/D7/A6/E7,
{16}A4,E6,E4,B6,B3,B7,B2,E8,{4}A1/E2/D2,A7/E7/D7,
{2}A3/E4/D4,{8}5/3,5,5,5,
3/5,3,3,3,3/6,6,6,6,
{1}6/1w5[0.5714##0.2857],
{4}3h[4:3],7h[2:1],{8},,,,1-4[0.4286##0.1429]/8-5[0.4286##0.1429],
,,8-6[0.4286##0.1429]/1-3[0.4286##0.1429],,,{4}1-5[0.4286##0.1429]/8-4[0.4286##0.1429],
{8},1/8,,,{4}7/2,{8}6/3,6/3,
{4}6/3,7/5,4/2,{8}8/7,8/1,
1/2,2,{16},,3,5,{8}3,{16}6,4,{8}6,5/4,
{4}4/6-1[8:1],6/2-5[8:1],2/8-3[8:1],8/4-1[8:1],
4/5-8[8:1],5/3-7[8:1],3/6-2[8:1],6/2,
{8}1/7-4[8:1],7,3-8[8:1],3,6-1[8:1],6,2-5[8:1],2,
8<6[8:1],8,{24}2x,3x,{6}4x,{24}4x,3x,{12}2x,{24},,1b/8b,2/7,3/6,4/5,,,,,,,,,{4}6/3,
{16}1,2,3,4,5/C,6,7,8,
1,2,3,4,5/C,6,7,8,1,2,3,4,5/C,6,7,8,
{8}1/5,5,3/4,3,6/4,6,4/6,{16}4,5,
4,5,4,5,,,2,1,{8}2,{16}7,8,{8}7,{16}4,5,
{4}4>3-6[2:1],7,6-8[4:1],8q4[2:1],
6,4p2[4:3],6,7,
{8}8,,,6,,,7-5[8:1],5-3[8:1],
{2}7,{8}2,5,3,5,
{4}3,6v3[8:3],{8}6,3V58[8:3],,,{4}8>2[4:1],
2q4[4:3],3,3,
{8}4<7[2:1],,,2,,,{4}3,
{2}4,{4}4,4h[2:1],
6,6h[2:1],2,2h[2:1],
4,4h[2:1],6,6h[2:1],
{8}8,,,8,,,2-4[8:1],4-6[8:1],
{2}2,{8}8-4[8:1],1-5[8:1],8,1,
{4}6h[4:1],4h[4:1],{8}7,3,,,{4}3/7,
7/3,2/7,2/8,
{8}1/8,,,8/1,,,{4}6-8[8:1]/3-1[8:1],
{2}3b/6b,{4}A8/D8/A1/D2/E2/E8,E7/D7/A6/E3/D3/A3,
{8}5,{16}3,4,{8}3,{16}2,1,{8}2,{16}7,8,{8}7,{16}6,5,
{8}6,{16}4,5,{8}4-2[8:1],5-7[8:1],4,5,1x,8x,
1x,{16}8x,1x,{8}8x,{16}6,4,{8}6,{16}2,4,{8}2,{16}7,5,
{8}7,1-5[8:1],8-4[8:1],1-3[8:1],8-6[8:1],1,8,1,
{4}8,{8}6/3,{16}3,4,{8}2,{16}6,5,{8}7,{16}3,5,
{8}2,{16}6,4,{8}7,8-5[8:1],1-4[8:1],8,{4}1,
{8}5-8[8:1],4-1[8:1],5,4,{16},,8,1,{4}8,
{8}8/1,8/1-5[8:1],{16},,1/8-4[8:1],7,{8}6,{16}1/8,2,{8}3,5/3,
7/1,{16}E1,B8,{8}B7,{16}E3,B2,{8}B1,{16}E5,B4,{8}B3,{16}E7,B6,
{8}B5,{16}3,2,{8}1,{16}6,7,{8}8,{16}4,3,{8}2,{16}5,6,
{8}7,{16}A1,D2,{8}A2,{16}A7,D7,{8}A6,{16}D3,A3,{8}D4,{16}A6,D6,
{8}A5,B5/B3,{4}E7/E2,{32}E1/E7,B6/B1,B5/B2,E5/E3,,,,,E2/E8,B2/B7,B3/B6,E4/E6,,,,,E3/E1,
B3/B8,B4/B7,E5/E7,,,,,{8}6bx/4bx,{16}1x,2x,{8}5/3x,{16}1x,8x,{8}5/7x,{16}1x,2x,
{8}5/3x,{16}1x,8x,{4}5/7x,{8}4/6,8/2,5/3,1/7,
4/3,3/4,5/6,5/6,7/8,7/8,2x/1x,1x/2x,
1x/8x,{32}8bx/1bx,7x/2x,6x/3x,5x/4x,,,,,8bx/1bx,7x/2x,6x/3x,5x/4x,,,,,8bx/1bx,7x/2x,6x/3x,5x/4x,,,,,8bx/1bx,7x/2x,6x/3x,5x/4x,
{8}Cf,,,2h[8:3]/B8/B7,B6/B5,,,7h[8:3]/B1/B2,
B3/B4,,,3h[8:3]/B6/E6,B8/B7,,,6h[8:3]/E4/B3,
{32}B2/B1,,,,,,,,,E7,B7,B8,3,E3,B2,B1,{8}5,5,5,5,
{4}1/5h[4:3],{8}2,2,,3,3,5,
6/4h[4:1],,,6h[8:3]/B1/E2,E3/B3,,,2h[8:3]/B7/E7,
B5/E6,,,7h[8:3]/E5/B4,B3/E4,,,3h[8:3]/B8/E8,
{32}B7/E7,,,,,,,,,E3,B2,B1,,,,,{4}B6/E6/B5,B2/B3/E3,
{2}B8/E8/B7,{4}Ch[4:1],B2/B3/B7/B6,
2/1h[4:1],2h[2:1],3,3h[2:1],
4,4h[2:1],5,5h[2:1],
6,6h[2:1],7,7h[2:1],
8,8h[2:1],{2}1h[4:1],
{8}4/5,3,4/5,6,5/3,2,4/6,7,
5/3,1,6/4,8,8/1s5[1.7143##0.1429],1/8v5[1.5714##0.1429],8/1v4[1.4286##0.1429],1/8z4[1.2857##0.1429],
{1}8h[2:1]/1h[2:1],
{2}8b/1b,{4}3/7,2/6,
{8}4/5-7[8:1],6,5/3-1[8:1],2,3/4-6[8:1],5,4/2-8[8:1],1,
{4}2/3V51[4:1],3,{16},,,,8,1,8,1,
{8}8>4[8:1],4<8[8:1],A8,A4,,,,8,
8qq2[8:3],,,2p5[8:3],,4,4,3,
2,,,8,8xV24[4:1],,,6,
6V48[4:1],,,3,3V51[4:1],,,7,
{4}7-3[4:1],3v2[4:1],2-6[4:1],1x,
1h[8:3],{8}7,7,,B7/E7/B6/B2/B3/E3/C,,5,
5/4-2[8:1],3,4/6-8[8:1],7,6/5-3[8:1],4,5/7-1[8:1],8,
{4}7/6V41[4:1],6,{16},,,,1x,8x,1x,8x,
{8}1<5[8:1],5>1[8:1],,,,,,7,
{4}7V51[4:1],{8}3,3xV51[8:3],,5,6,7,
7V51[4:1],,,3,2V48[4:1],,,5,
6V47[4:1],,,2,{2}3V51[4:1],
{4}8h[4:1],1-4[8:1],1/8-5[8:1],8/1-5[8:1],
{2}1/8,{4}7/2,6/3,
8/1,{16}2,1,2,1,3,8,3,8,2,7,2,7,
1,6,1,6,2,7,2,7,3,6,3,6,4,5,4,5,
{8}4-2[8:1],4-6[8:1],4x-1[8:1],4x-7[8:1],{2}4x-8[8:1],
{8}8x/1-3[8:1],2,1/8-6[8:1],7,8/1-5[8:1],2,1/8-4[8:1],7,
{4}1/8,{8}1x/8x,8,8/1x,1,1/7x,7,
7/2x,2,{4}7/2,{8}7-4[8:1],4-7[16:1],,,3-5[8:1],
5V37[4:1],,7V52[8:3],,6,,,8,
7,6,5,1/5,2/6,7/3,8/4,
{4}Cf,{16}7,8,7,8,6,1,6,1,7,2,7,2,
8,3,8,3,7,2,7,2,6,3,6,3,5,4,5,4,
6,3,6,3,{8}6-8[8:1],6-4[8:1],{2}6-2[8:1],
{8}3-1[8:1],3-5[8:1],{4}3-7[8:1],{8},,,,7/2-4[8:1],
7,7/2-5[8:1],7,7/2,7,7,7,
2/7-5[8:1],2,2/7-4[8:1],2,2/7,2,{32},,,,,,,,1/5,
2,3,4,5,6,7,8,,,,,,,,,8/4,7,6,5,4,3,2,1,,,,,,,,,8x/1,
2,3,4x,5,6,7,8,1/7x,2,3,4,5,6,7,8,1/6x,2,3,4,5,6,7,8,1/5x,2,3,4,5,6,7,8,
{1},5bxh[1:2]/4bxh[1:2],
E
