&title=故に、摩天楼
&artist=MUCC
&first=0
&des=Vc
&lv_6=14
&inote_6=(170)
{1},4-7^8v1^2-5[4:28]b`2-6[4:12],,,,,,,
{16},,,,,,,,1b/8b,,,,,,8,4/7,
{16}3b,,1,,6/5,,6,,2/3,,3,,5-2[8:1]/6,,5,,
{16},,,,5>1[8:1]/6,,,,3,,,,7,,7,,
{16}6/5-8[8:1],,5,,,,,,6/5<1[8:1],,,,7,,,,
{16}8-5[8:1]/6,,,,5,,,,8-4[8:1]/4,,,,4,,,,
{16}7/6,,8,,3/4,,3,,6/7,,6,,3/4-7[8:1],,4,,
{16},,,,3/4<8[8:1],,,,6,,,,1,,5,3,
{16}4-1[8:1]/7-5[8:1],,7,,,,,,1-3[8:1]/4-7[8:1],,1,,,,,,
{16}1-6[8:1]/4-2[8:1],,1/4,,,,,,1,4,3,5,4,6,8,6,
{16}5b,,,,3/5,4,,,7,5,6,5,6,,3,,
{16}8,,,,3/4,5,,,7,5,6,5,6,,3,,
{16}8,,,,4/5,3,,,7,5,6,5,6,,3,,
{16}8,,,,3/4,2,,,7,5,6,5,7,,3,8,
{16}1b/7,,,,5/6,7,,,2,5,3,4,3,,6,,
{16}1,,,,5/7,6,,,2,5,3,4,3,,6,,
{16}1,,,,5/6,4,,,2,5,3,4,2,,6b,1-4[8:1],
{16}2/8,,,,,,,,8,5,6,4,5,3,2,3,
{16}5b,,,,1/7,8,,,4,7,5,8,3,,5,5,
{16}7,,,,1/8,2,,,4,7,5,8,3,,5,5,
{16}6,,,,7/8,1,,,4,7,5,8,2-6[8:1],,1,,
{16}5,,,,1/2,8,,,3,5,4,,7,,1,2/4,
{16}6b,,,,1/7,2,,,8,3,1,4,7-3[8:1],,6,,
{16}2,1,,,2/6,7,,,8,3,1,4,7,,26,15,
{16}8-3[8:1]/4-7[8:1],7,,,,,,,8,4,6,3,5,1,3,3,
{16}8bv5[8:1]*v3[8:1],,,,8,,,,1,2,3,4,6,7,8,1,
{16}5b,,,,5>1pp4[4:3],,,,E3,,,,,,7,,
{16}8,,,,8<4pp7[4:3],,,,E6,,,,,,,,
{16}8,,,,1>5qq2[4:3],,,,E4,,,,,,6,,
{16},,7,,,,,,8<7v5[8:1]*>1v3[8:1],,8,,,,,,
{16}2b,,,,2/1,,,,2/3,,,,2/4,,3/5,,
{16}1,,7/8,,2/4,5,,,1,,2/5,,3/7,8v3[16:1]*v5[16:1],,,
{16}8b,,,,2/6,,7,,6/1,,,,2,3,6b,,
{16},,3/6b,4,8b>1qq7v4^5[16:6],,,,,,,,,,,,
{16}3b,8,2,7,1,7,8,7,6,7,5,7,4>6[8:3],6,3,5,
{16}2bh[2:1],,,,,,,,5-8[8:1],,4,,3>5[8:3],,2,,
{16}1bh[2:1],,,,,,,,4<7[8:1],,8,,1,,2q6[8:1],,
{16},,8p4[8:1],,,,2q6[8:1],,,,4,,5<8[8:1],,,,
{16}6/5bp1[8:1]*>2[8:1],,,,,,,,8-4[8:1],,4,,8b>3[8:1],,,,
{16}8-4[8:1],,6,,8b>3[8:1],,,,8-4[8:1],,6,,8b>3[8:1],,,,
{16}8-4[8:1],,6,,8b>3[8:1],,,,8,,6,,8bh[8:1],,,,
{16}1v6[8:1]/5x>2[8:1]
,,,,1b/5b,,,,{64}A1`4x,D2,A2/B2,D3,A3/B3,D4,A4/B4,D5,A5/B5,D6,A6/B6,D7,A7/B7,D8,A8,D1/E1,{16}Cf,,,,
{16}6bx,1x,7,2,8,2,1,2,4,3,5,3,6V84[4:1],4,7,5,
{16}8bh[2:1],,,,,,,,4-7[8:1],,3,,2V84[4:1],,1,,
{16}8bh[2:1],,,,,,,,5-2[8:1],,1,,8,,7-3[8:1],,
{16},,7-1[8:1]/3-8[8:1],,,,7-5[8:1]/3-6[8:1],,,,3p2[4:1],,,,8b,,
{16},,,,1b<6[8:1],,,,1-4[8:1],,3,,1b<6[8:1],,,,
{16}1-4[8:1],,3,,1b,,,,{24}6,5,4,3,2,1,7,6,5,4,3,2,
{16}8bq4[8:1],,,,8b,,6,,6q2[8:1],,,,6,,4,,
{16}4q8[8:1],,,,4,,6,,6p2[8:1],,6,,8>3[8:2],,,,
{16}4>8[4:1],,,,7>4[4:1],,,,5>7[4:1],,,,7q5<6[4:1],,,,
{16},,,,1-5[8:1],,2,,3-8-5-2[8:3],,,,7bh[4:1],,,,
{16},,,,8-5[8:1],,7,,6-1-4-7[8:3],,,,2bh[8:1],,,,
{16}3-8[8:1],,,,1b<8pp2v5^4[16:6],,,,,,,,,,,,
{16}2/3b,,1,,6/5,,6,,2/3,,1,,5-2[8:1]/6,,5,,
{16}3/5,,,,5-2[8:1]/6,,,,3/5,,,,7,6,1,,
{16}2/3-8[8:1],,3,,5/3,,,,2/3-7[8:1],,,,5/3,,,,
{16}8-5[8:1]/6,,,7,7,,,,8-4[8:1]/4,,,1,1,,,,
{16}5b/1,,7,,3/4,,3,,6/7,,8,,3/4-7[8:1],,4,,
{16}6/4,,,,3/4-8[8:1],,,,6/4,,,,8,,6,4,
{16}5-2[8:1]/8-6[8:1],,1,,,,,,1-3[8:1]/4-7[8:1],,8,,,,,,
{16}1b^3[16:1],,8b^6[16:1],,2b-5[16:1],,7b-4[16:1],,,,,,,,{24}7,6,5,
{16}3b,1,2,8,1,7,8,7,6,7,5,7,4>6[8:3],6,3,5,
{16}2bh[2:1],,,,,,,,5-8[8:1],,4,,3>5[8:3],,2,,
{16}1bh[2:1],,,,,,,,4-8[8:1],,1^4[8:1],,1,,1^6[8:1],,
{16},,1>4[8:1]/5-8[8:1],,,,1^6[8:1],,,,5,,4w8[8:1],,,,
{16}4b<2[16:3],,,,,,,,7,4,7,5,8,,6/2,,
{16}1,5,1,4,2,,3/7,,4,6,3,5,2,7,1,8,
{16}27,,27,,7,3,6,4,8,2,7,3,5^8[7:1],,2,,
{24}1b,2,3,{16}4,,{24}2b,3,4,{16}5,,{32}3b-7[32:1],4-8[32:1],5-1[32:1],6,7,8,1,2,{16}A5/A4f/A3,,,,
{16}6bx,1x,7,2,8,2,1,2,4,3,5,3,6-1-3^4[4:1],4,7,5,
{16}8bh[2:1],,,,,,,,4-7[8:1],,3,,2-7-5^4[4:1],,1,,
{16}8bh[2:1],,,,,,,,5-1[8:1],,8^5[8:1],,8,,8^3[8:1],,
{16},,8p4[8:1]/4p8[8:1],,,,4<7[8:1]/8^3[8:1],,,,8<2[16:6],,,,8hb[16:6],,
{16},,,,,,,,2,6,3,5,1,,2/6,,
{16}8,2,7,3,6,,7/3,,{32}8b/4h[4:1],7,6,5,,3,2,1,8,7,6,5,,3,2,1,
{16}8bq6[16:3],,,,,,,,1-4[8:1],,5,,1b-6-3[4:1],,,,
{16}1-4[8:1],,2,,1b-6-3[4:1],,,,1-4[8:1],,3,,1b-6-3[4:1],,,,
{16}1-4-7[4:1],,,,1b-6-3[4:1],,,,1-4-7[4:1],,,,1b,,,,
{16}8-5[8:1],,4,,8b-3-6[4:1],,,,8-5[8:1],,7,,8b-3-6[4:1],,,,
{16}8-5[8:1],,6,,8b-3[8:1],,,,8w4[8:1],,,,E8/E1/B8/A1/A7/A8f/D1/D8,,,,
{16}4,6,2,5,3,4,2,5,3,7,4,6,1,5,6,7,
{16}3b,,3,,6/5,,1,,2/3,,5,,5-2[8:1]/6,,1,,
{16}5/3,,,,5-2[8:1]/6,,,,5/3,,,,5,6,8,,
{16}1/3-8[8:1],,3,,3/5,,,,2/3-7[8:1],,,,3/5,,,,
{16}8-4[8:1]/6,,,7,1,,,,8-4[8:1]/4,,,1,7,,,2,
{16}6b/1,,6,,3/4,,8,,6/7,,4,,3/4-7[8:1],,8,,
{16}4/6,,,,3/4-8[8:1],,,,4/6,,,,1,,4,5h[16:3],
{16}8^1-3^4-6^7-1^2-4q7[4:23],,3bh[8:47],,,,,,,,,,,,,,
{16},,,,,,,,,,,,,,,,
{1},,,,
E
