&title=Accelerate (改)
&artist=Teminite/Skybreak
&first=0
&des=MYOU
&des_5=MYOU
&lv_5=14
&inote_5=(150)
{1},
{8},4V62[1:1]/6-2[16:17],,,,,,,
{4},,,{24}3,4,5,6,7,8,
{16}1b,,,46,,,8b,,,35,,,2b/6b>8[100#16:3],,,,
{8},,,4b-8[100#12:1],,,7bqq4[100#8:3]/4bqq1[100#8:3],,
{1},
{16}3,5,,5,,5,,3,5>3[8:1],,,,2-5[8:1],,,,
{16}8b,,,6,5,,6,4,,6,5,,6,4,,6V48[16:6],
{4}5V73[16:5],,,7-4[8:1],
{16}1b,,,2,4,,3,5,,2,4,,3,5,,2q1[16:6],
{4}4bp5[16:5],,,2-5[8:1],
{16}8b,,,7,6,,7,8,,7,6,,7,8,,7s3[16:6],
{4}6z2[16:5],,,1-5[8:1],
{4}1bq3[2:1]/8bp6[2:1],,,,
{16}2b/7b,,,,3,3,5,4,6,5,,5,,4<7[32:3],5,,
{16}2b,,3h[16:3],,,1,,3,4,,35,,2-4[16:1]/4,,,3,
{16},,6,5,,7,1,8,,2-5[16:1],4,,5bp1[8:1],,,,
{16}8b,,7h[16:3],,,8,,6,5,,46,,3,4,2,,
{16}2b,4,3,4,2,5,4,5,3,6,5,7,4<7[8:1],5,3,4,
{16}2b,,1h[16:3],,,3,,2,1,,28,,1/7-5[16:1],,,6,
{16},,3,4,,2,8,1,,7-4[16:1],5,,4bq8[8:1],,,,
{16}1b<4[8:3],,2,,,2,,2,2,,2,,2,2,2,,
{16}1b/8b,18,,57,,16,,37,,25,,3,4,,5,4qq5[4:3],
{16},,,,6,,,,,,,,6>2[16:7],,,7h[16:1],
{16},,,7,,,5,,,,3p1[16:12],4,3,,,,
{16}6,,,,6,,,,,,,,6p2[16:5],,,1h[16:1],
{16},,,1,,,1>4[8:1],,,,5,6,7,,7,5,
{16}6,,6,4,5,,5,3,4h[8:3],,,,,,2,4,
{16}3,,3,5,4,,4,6,5h[8:2],,7,7,,,46,,
{1}3q5[16:9]/5p3[16:9],
{16}2,3,4,5,2,3,4,5,2,3,4,5,2,3,4,5,
{16}1-6[8:1],,,,12,,3,,4-7[8:1]/5,,,3,4,,2V84[4:1],,
{16}6,,,6,,,5h[4:1],,,,3V15[4:1],4,3,,5-2[8:1],,
{16},,,,7,,2/6V85[4:1]*V83[4:1],,,,,,,,,,
{16}46,,,57,,,6/8-5[8:1],,,,4,3,2,,2,2,
{16}4,,4,4,6,,7,7,5h[8:3],,,,,,7,7,
{16}5,,5,5,3,,2,2,4v1[8:1],,5,3,,,7,6,
{16}5V73[8:2],,,,2,,3V17[16:3]*v5[16:3],,,,,,,,,,
{16}6,4,,4,,4,,6,4<6[8:1],,,,7-4[8:1],,,,
{16}1b,,,,3,4,2,3,1-6[8:1],,,2,1,,3,,
{16}1-6[8:1],,,2,1,,3,,1h[96:1],,7,3,,2-5[16:1],6,,
{16}8b,,,,6,5,7,6,8>3[8:1],,,7,8,,6,,
{16}8>3[8:1],,,7,8,,6,,8<5[8:1]*>3[8:1],,,,8,,,,
{16}3b,5,4,6,2b,7,5,6,3b,5,4,6,2b,7,5h[16:1],,
{16}7b,4,5,3,8b,2,4,3,7b,4,5,3,8b,2,4h[16:1],,
{32}1b,2,3,,5b,6,7,,1b,2,3,,5b,6,7,,1b,2,3,,5b,6,7,,1b,2,3,,5bz1[16:5],6,7s3[16:4],,
{4},,,2-6[8:1]/8-4[8:1],
{16}2b/8b,,,,3,7,1,5,3h[8:1],,1>4[8:1],2,,7,1,,
{16}6h[8:1],,8<5[8:1],7,,2,8,,{32}3b<2[4:1],2,1,8,7,6,5,4,,,,,,,,,
{16}6b,,,,2,5,4,7,2h[8:1],,4-1[8:1],3,,6,4,,
{16}7h[8:1],,5-8[8:1],6,,3,5,,2bV47[16:3],,,,7bV52[16:3],,,,
{16}1b,,,,6,2,8,4,5h[8:1],,8<5[8:1],7,,2,8,,
{16}4h[8:1],,1>4[8:1],2,,7,1,,{32}5b>6[4:1],6,7,8,1,2,3,4,,,,,,,,,
{16}2b,,,,1,5,4,8,1b-5[16:1],,,1b/7b-3[16:1],,,7b/3bV52[16:3]*V58[16:3],,
{8},,,,8v3[8:1]*v5[8:1]/2,,,,
{32}4,5,6,7,8,1,2,3,4,5,6,7,8,1,2,3,4,5,6,7,8,1,2,3,4qq8[16:6],5,6,7,8,1,2,3,
{16},,,,,,5,5,1v4[8:1],4,2,6,,,{32}8,7,6,5,
{32}4,3,2,1,8,7,6,5,4,3,2,1,8,7,6,5,4,3,2,1,8,7,6,5,{8}14,1pp5[8:3]/4,
{8},6<1[8:1],,,,48,37,26,
{16}1/5-8[16:1],,2,2,,,3,,4/1-5[16:1],,3,3,,,2,,
{16}1/4q8[16:1],,3,3,,,2,2,1,3,8,4,7,5,6,4,
{16}5-3[16:1],,,3V57[8:1],,,2,,,,1,,82,,73,,
{16}6/4-8[16:1],,,8,,,26,,6,4,5,3,4,2,8,1,
{32}7,6,5,4,3qq8[16:5],2,1,8,7,6,5,4,,,,,{8},,7<4[8:1],17,
{16},3,2,1,5,2,6,3,7h[8:1],,5,7,4,5,2,4,
{24}1,2,3,4,5,6,7h[8:1],,,1,2,3,4,5,6,7h[8:1],,,1h[8:1],,,8,7,6,
{24}5,4,3,2,1,8,{16}3/7-4[8:1],,15,,,,3h[8:1],,5,4,4,4,
{16}6,5,7,4,5,3,6,4,5,2,4,3,6,5,7,1,
{16}8,2,4<7[8:1],3,,,1,2,3,4,85,7,6,5,43,2,
{16}81,,7,75,,3,53,,8,85,,2,52,,8,5qq2[16:7]/8qq5[16:7],
{8},,,,,,,37,
{16}2,1,2,1,3,,7,8,7,8,6h[8:1],,8,7,1,8,
{16}2,1,2,4,3,,7,8,7,5,6h[8:1],,4,6,5,7,
{16}2,1,3,5,4,,7,8,6,4,5,,3,4,2,3,
{16}2,1,3,5,4v7[8:1]*v1[8:1],,7v5[8:1],,,,,,2,2,5,4,
{16}7-4[8:1],8,6,1,7,,2-5[8:1],1,3,8,2,,7,8,6,1,
{16}7-3[8:1],8,6,1,7,,2,1,3,8,4,5,3,6,1,8,
{24}2,3,4,1,2,3,7,6,5,8,7,6,1,2,3,7,6,5,{16}3,4,2,3,
{16}1qq7[8:1],,,8>4[8:1]*q5[8:1],,,,,,,,,7-3[8:1]/1-5[8:1],,,,
{16}7b/1b,,,,6,4,8,1,1b/7h[4:1],,,,1,7,3,7,
{16}5,7,1,7,3,7,65,,4b>1[8:1]/8b<5[8:1],,,,,,,,
{16}2,6,4,8,2,6,4,8,8b/2h[4:1],,,,4,3,6,3,
{16}8,3,4,3,6V83[16:3],,15,,6b/3bV58[8:1],,,,,,,,
{4}8p2[16:3]/2>5[8:1],2<5[4:1]/8,4b-8[8:1],4pp8[8:4],
{4},1-3[32:3],1bv6[8:1]*v4[8:1],,
{4}8v5[8:1]/3<8[4:1],8>4[16:3]/3,5bp4[16:5]*q6[16:5],,
{24},,,,,,8,,,4,5,4,5b,,,27,,,3b-8[8:1]/6b-1[8:1],,,,,,
{16}3b<6[8:1]/6b>3[8:1],,,,,,,,2,2,8h[8:1],,{32}3,4,5/8h[8:1],,,,3,4,
{32}5/8h[8:1],,,,3,4,5/8h[8:1],,,,3,4,5/8h[8:1],,,,3bV57[8:1]*v1[8:1],,,,,,,,,,,,,,,,
{32}6,5,4/2h[8:1],,,,6,5,4/2h[8:1],,,,1,,,,3b/8b<4[8:1],,,,,,,,{20}4bq8[40:3],,,,1b<5[40:3],
{20},,,4bq8[40:3],,,,1b,,,{16}3,4,5,6,{12}5,4,3,
{16}2h[8:1]/6h[8:1],,,3h[8:1]/5h[8:1],,,56,,4p2[8:3]/8p4[8:1],,,,4b<1[8:1]/8b,,,,
{16},,,,6,5,4,3,21,,,78,,,46,,
{8}5/3<6[8:1],2,1-3[32:3],8-4[8:1],1,8,{32}2b,1,8,7,6,5,4,3,
{8}2/7-3[8:1],8b,7b/1b<6[8:1],,5h[4:1]/1,,{32}6b,7,8,1,2,3,4,5,
{1}6bq8[4:10]/8b>8[4:10],,,1b,
&inote_6=(150)
{16},,,,,,,,,,,,,,,,
Ch[4:7],,,,,,,,,,,,,,,,
,,,,,,,,,,,,E3,B4,B6,E8,
1xh[8:1],,,1,,,3xbh[8:1]/7xbh[8:1],,,37,,,6^3[8:1]/E1f/B8/B1,,,,
,,E3,B2,C,B6,E7/8xh[8:5],,,,,,4bh[4:1],,,,
,,{24}4x/8x,3x/7x,2x/6x,1x/5x,8x,7x,6x,5x,4x,{32}A3,D3,A2,D2,A1,D1,A8,D8,A7,D7,A6,D6,A5,D5,A4,D4,
{16}8,8,,17,,26,,35,3-7[8:1]/5,,,,E1f,,,,
8bh[16:1]/6xh[1:1],,,,E7,,,E8,,,E1,,,E2,,,
E3,,6,,3,4,,2h[16:3]/5,,,8,1,8b^3[8:1],,7,,
6xh[1:1],,,,4,,,5,,,4,,,5,,,
3b,,{32}D4,A4,D5,A5,{16}D6,,8,8h[8:1],,5,7,4,8,3,1,,
1bh[16:1]/3xh[1:1],,,,E3,,,E2,,,E1,,,E8,,,
E7,,3,,6,5,,7h[16:3]/4,,{32}E4,E5,{16}E6,,7b,7,,4,
5>6p5[4:3]/3xh[8:7],,,,,,,,,,,,,,,,
3b,,,,{32}D2,A2,D3,A3,D7,A6,D6,A5,{16}4xw8[8:1],,,,,,,,
2xb/6xb,,2h[16:5],,,4,,1,2V84[16:3],,2,,5h[16:3],,,,
,,4,5,,6,5,6,,4,5,,{32}4x/6,3x,2x,1x,8x,7x,6x,5x,
{16}4xb/8b,,8h[16:5],,,7,,1,8,,17,,6,5,6,,
7xb/3xb,E3,A2,E2,A1,E1,A8,E8,A7,E7,A6,E6,A5,E5,A4,E4,
7xb/3xb,,7h[16:5],,,5,,8,7V15[16:3],,7,,4h[16:3],,,,
,,5,4,,3,4,3,,5,4,,{32}5/3x,6x,7x,8x,1x,2x,3x,4x,
{16}5xb<4[2:1]/1h[4:3],,,,,,,,,,,,{32},B1,C,B5,{16},,
37,37,,12,,45,,78,,23,,5,46,,1x/8x,2x/7x,
3x>6[2:1]/6x,,,,B5/E5,,,,,,,,B5/E5,,,3,
3>6b[2:1],,,4,,,5,,5-1[8:1],,,,5,,,,
6x<3[2:1]/3x,,,,B4/E5,,,,,,,,B4/E5,,,6,
6<3b[2:1],,,5,,,4,,,,5,,5,,6,4,
6,,2,4,2,,8,4,8h[4:1],,,,1,,3,5,
3,,7,5,7,,1,5,1h[8:3],,7,7h[16:3],,,,,
1>7[8:3]/7,,,,7,,8z4b[4:1],,,,,,,,,,
2,1,2,1,3,8,3,8,4,7,4,7,5,6,5,6,
4qq8[2:1],,4,,B6/E6/B5,,,,,,7,,B6/E6/B5,,,1,
1v2-4b[4:1],,1,,B6/E6/B5,,,,,,7,5,6,4,5,3,
5pp1[2:1],,5,,B3/E4/B4,,,,,,2,,B3/E4/B4,,,8,
8-5b[8:1],,8,,B3/E4/B4,,,,3,4,2,5,1,6,8,7,
1h[8:1],,7,5,6h[8:1],,3,4,2h[8:3],,7,,8,,1,2,
8h[8:1],,2,4,3h[8:1],,6,5,7h[8:3],,1,1h[16:3],,,,,
7qq2[8:3]/1,,,,2,,3h[4:1],,,,,,34,,,,
{16}1,1,,82,,73,,64,6-2b[8:1]/4,,,,E1f,,,,
3/4xh[4:1],,,,{24}2x,5,2,{16}5,3,4xh[16:3],,,3,4x,,2,,
3/4xh[16:3],,,3,5x-2[8:1],4,6,,5/6x,,8,8,,4,4,,
6/5xh[4:1],,,,6x,5,7,4,8xh[16:3],,,3,8x,,2,,
1/8xh[16:3],,,3,8x-4[8:1],,2,,1x/8,,3,3,,5,5,,
6-3[8:1]/4h[8:1],,,,6/7h[8:1],,,,2-5b[8:1]/4h[8:1],,,,1h[8:1]/2,,,,
7-4[8:1]/5h[8:1],,,,7/8h[8:1],,,,3-6b[8:1]/5h[8:1],,,,2h[8:1]/3,,,,
{24}2b,3x,4x,7b,6x,5x,{32}1b,2x,3x,4x,8b,7x,6x,5x,{48}1b,2x,3x,4x,5x,6x,7xb,8x,1x,2x,3x,4x,{16}5xb,,7xb-5-8-4-1-3[8:5]/E5f,,
{16},,,,,,,,,,,,5^2[8:1]*p1[8:1],,,,
5b,,,,2,8,1,1,1h[8:1],,7,3h[8:1],,7,5,,
1h[8:1]/6,,7,3h[8:1],,7,5,,{24}84,E8,B7,B6,B5,E5,1xv6[8:1],8x,7x,6x,5x,4x,
{16}1b/3x,,,,4,6,5,5,5h[8:1],,7,3h[8:1],,7,1,,
5h[8:1]/6,,7,3h[8:1],,7,1,,2V86[8:1]/6,,35,,4z8[8:1],,,,
4b,,,,7,1,8,8,8h[8:1],,2,6h[8:1],,2,4,,
8h[8:1]/3,,2,6h[8:1],,2,4,,{32}15,D2,A2,D3,A3,D4,A4,D5,{24}8xv3[8:1],1x,2x,3x,4x,5x,
{16}8b/6x,,,,5,3,4,4,4bh[8:1],,,3bh[8:1]/5bh[8:1],,,2b<5[8:3]/6b<3[8:3],,
,,,,,,,,B3/B5/B4f/E5/E4,,,,1x/7x,,,,
{32}2,3,4,5,6,7,8,1,2,3,4,5,6,7,8,1,2,3,4,5,6,7,8,1,2qq3[4:1],3,4,5,6,7,8,1,
{16}E5f/B5/B4,,,,,,5,3,6,4,7,5,,38,3xh[8:7]/8x-2^3-5^6-8^1-3^4-6^7-1[8:6],,
,,,,,,,,,,,,,,3q6[8:3],,
,,7h[8:3],,,,,,,,57,,64,,35,,
2-7[8:1]/4,,1,1,,,4,,5-2[8:1],,6,6,,,7,,
8-5[8:1],,1,1,,,3,3,4,3,5,2,6,1,7,8,
1h[8:1]/6h[8:1],,,2h[8:1]/7h[8:1],,,3/8qq4[8:3],,,,4,,3,,2,,
1b,,2,4b,,7,5b,,2b,1,3,8,4,7,5,6,
{64}4xpp1[8:3],D4,A3,D3,A2,D2,A1,D1,A8,D8,A7,D7,A6,D6,A5,D5,{16}8x,,8h[8:3],,,,,,2,,2/6h[16:3],,
,8,6,1,7,2,8,3,{48}1x,B1,C,{16}B5,3,4,2,6,5,7,
2xh[16:1],3xh[16:1],4xh[16:1],5xh[16:1],6xh[16:1],7xh[16:1],2xh[16:1],3xh[16:1],4xh[16:1],5xh[16:1],6xh[16:1],7xh[16:1],1,,2,8,
3,7,4,6,1,,2h[4:1]/8,,,,6,,4,4,5,5,
3,4,1,6,4,5,2,7,5,6,3,8,4,5,2,7,
1,6,3,8h[16:3],,,6,7,5,6,4,5,3,4,2,3,
2xh[8:1],,{32}8x,7x,{16}6xh[8:1],,{32}3x,2x,{16}1xh[8:1],,{32}7x,6x,{16}5xh[8:1],,{32}2x,1x,{16}8xh[8:1],,{48}E3,B2,B1,B8,B7,E7,
{32}4x,3x,2x,1x,8x,7x,6x,5x,4x,3x,2x,1x,8x,7x,6x,5x,4xv5^4[8:1],3x,2x,1x,8x,7x,6x,5x,{16},,,,
{16}
7,5,6,4,5h[8:1],,2,4,3,5,4h[8:1],,6,4,5,3,
7,5,6,4,5h[8:1],,2,4,3,5,4h[8:1],,6,2,7,3,
8,5,7,4,6h[8:1],,1,4,2,5,3h[8:1],,6,2,7,3,
8,4,7,3h[16:3],6bh[8:1],,,,{24}15,8,7,6,5,4,8,1,2,3,4,5,
{16}
2,1,3,8,4,4,7,8,6,1,5,5,4,5,3,6,
2,1,3,8,4,4,7,8,6,1,5,5,{24}2x,6x,2x,6x,2x,6x,
{24}1,2,3,5,6,7,2,3,4,6,7,8,3,4,5,7,8,1,{32}4,5,6,7,8,1,2,3,
{16}4xh[8:1]/8xh[8:1],,,2xh[8:1]/6xh[8:1],,,3x/7x,,1-5^2[4:1]*-5^8[4:1],8,2,8,1b,,,,
E3/B2/B3/C/B7/B8/E8/B1f,,,,3,5,4,4,4bh[8:1],,,,2,8,1,1,
1,1,1,1,2,8,1x,,{48}1x/6bh[4:1],D1,A8,D8,A7,D7,,D6,A5,D5,A4,D4,{16}A3f,,,,
2,8,1,1,1p5[8:1]*q5[8:1],1,1,1,{48}1xb,B1,C,{16}B5,,,7,5,6,6,
6,6,6,6,7,5,6x,,4b/6b,,,37,,,28,,
{32}B2,B3,{16}E4,,{32}B8,B7,{16}E7,,1x,,1^4qq8[8:5]/5pp4b[4:1],,6,,1b/5b,,,
,,,,,6<4[2:1],,,,E2/B1/B2,,,,,,,,
5-1[8:1],,,,6<4[2:1],,6,,E2/B1/B2,,,,5,,5h[8:3],,
,,,,3,,{32}3x,4x,5x,6x,{16}E1f,,Cf,,E5f,,,,
2b/7b,,,,{24}1x,1x,1x,1x,1x,1x,{16}1xh[8:1],,{24},28,37,{16}4h[16:1]/6h[16:1],,,2h[16:1]/8h[16:1],
,,3h[16:1]/5h[16:1],,,1h[16:1]/7h[16:1],,,{48}8bh[8:3]/E5,B5,E6,B6,E7,B7,E8,B8,E1,B1,E2,B2,E3,B3,E4,B4,E5,,,,,,,,
{16}5xh[16:1]/7xh[16:1],,,2h[16:1]/4h[16:1],,,E2/B1/B8/E8,,{24}4x,4x,4x,4x,4x,4x,{16}4xh[8:1],,,2h[8:1]/4h[8:1],
,,8h[8:1]/4h[8:1],,,6h[8:1]/4h[8:1],,,4b-2-6-8[4:1]/E8/B8f/E1/B7/B1,,,,,,,,
D6,,,D5,,,D4,,2x-7[8:1]/7x-2[8:1],,,,2b/7b,,,,
3,5,4,6,3,5,4,6,E3,,,E1,,,E7,,
{32}5xh[2:1]/1,2,3,4,,6,7,8,1,2,3,4,,6,7,8,{16}1b-6-3p8[8:3],,,,7bh[8:3],,,,
,,,,1xv4[8:1]/7xv4[8:1],,,,B8f,,,,{32}2x-8b[8:1]/6x-8b[8:1],D3/D6,A3/A5,D4/D5,{16}A4,,
2b-4-6z2>7[2:5]/6b-4-2s6>1[2:5],,,,,,,,,,,,,,,,
,,,,,,,,,,,,,,,,
,,,,,,,,,,,,,,{32}A8/D1/D8/E1/E8,A1/A7/D2/D7/E2/E7/B1/B8/B7,A2/A6/E3/E6/B2/B6/C,A3/A5/B3/B5/D3/D6,
{16}A4f,,,,,,,,,,,,,,,,
,,,,,,,,,,,,,,,,
,,,,,,,,,,,,,,,,
&inote_7=(150)
{1},
{8},4V62[1:1]/6-2[16:17],,,,,,,
{4},,,{24}3,4,5,6,7,8,
{16}1b,,,46,,,8b,,,35,,,2b/6b>8[100#16:3],,,,
{8},,,4b-8[100#12:1],,,7bqq4[100#8:3]/4bqq1[100#8:3],,
{1},
{16}3,5,,5,,5,,3,5>3[8:1],,,,2-5[8:1],,,,
{16}8b,,,6,5,,6,4,,6,5,,6,4,,6V48[16:6],
{4}5V73[16:5],,,7-4[8:1],
{16}1b,,,2,4,,3,5,,2,4,,3,5,,2q1[16:6],
{4}4bp5[16:5],,,2-5[8:1],
{16}8b,,,7,6,,7,8,,7,6,,7,8,,7s3[16:6],
{4}6z2[16:5],,,1-5[8:1],
{4}1bq3[2:1]/8bp6[2:1],,,,
{16}2b/7b,,,,3,3,5,4,6,5,,5,,4<7[16:1],5,,
{16}2b,,3h[16:3],,,1,,3,4,,35,,2-4[16:1]/4,,,3,
{16},,6,5,,7,1,8,,2-5[16:1],4,,5bp1[8:1],,,,
{16}8b,,7h[16:3],,,8,,6,5,,46,,3,4,2,,
{16}1b,4,3,4,1,5,4,5,2,6,5,7,4<7[8:1],5,3,4,
{16}2b,,1h[16:3],,,3,,2,1,,28,,1/7-5[16:1],,,6,
{16},,3,4,,2,8,1,,7-4[16:1],5,,4bq8[8:1],,,,
{16}1b<4[8:3],,2,,,2,,2h[16:1],,,2,,2,3,2,,
{16}1b/8b,18,,5/7<5[32:3],,3>1[32:3],,7,,3,,4,1,,7,4qq5[16:12],
{16},,,,6,,,,,,,,6>2[16:6],,,7h[16:1],
{16},,,7,,,6,,,,3p1[16:12],4,3,,,,
{16}6,,,,6,,,,,,,,6p2[16:5],,,1h[16:1],
{16},,,1,,,1>4[8:1],,,,5,6,7,,7,5,
{16}6,,6,4,5,,5,3,4h[8:3],,,,,,2,4,
{16}3,,3,5,4,,4,6,5h[8:3],,7,7,,,6,,
{1}3q5[16:9]/5p3[16:9],
{16}2,3,4,5,2,3,4,5,2,3,4,5,2,3,4,5,
{16}1-6[8:1],,,,12,,3,,4-7[8:1]/5,,,3,4,,2V84[4:1],,
{16}6,,,6,,,5h[4:1],,,,3V15[4:1],4,3,,5V31[16:3],,
{16},,,,7,,8/6V85[4:1]*V83[4:1],,,,,,,,,,
{16}46,,,57,,,6/8-5[8:1],,,,4,3,2,,2,2,
{16}4,,4,4,6,,7,7,5h[8:3],,,,,,7,7,
{16}5,,5,5,3,,2,2,4-1[8:1],,5,3,,,7,6,
{16}5V73[8:2],,,,2,,3V17[16:3]*V15[16:3],,,,,,,,,,
{16}6,4,,4,,4,,6,4<6[8:1],,,,7-4[8:1],,,,
{16}1b,,,,3,4,2,3,1-6[8:1],,,2,1,,3,,
{16}1-6[8:1],,,2,1,,3,,1h[96:1],,7,3,,2-5[16:1],6,,
{16}8b,,,,6,5,7,6,8>3[8:1],,,7,8,,6,,
{16}8>3[8:1],,,7,8,,6,,8<5[8:1]*>3[8:1],,,,8,,,,
{16}2b,5,4,6,1b,7,5,6,2b,5,4,6,1b,7,5,5,
{16}7b,4,5,3,8b,2,4,3,7b,4,5,3,8b,2,4,4,
{32}1b,2,3,,5b,6,7,,1b,2,3,,5b,6,7,,1b,2,3,,5b,6,7,,1b,2,3,,5bz1[16:5],6,7s3[16:4],,
{4},,,2-6[8:1]/8-4[8:1],
{16}2b/8b,,,,3,7,1,5,3h[8:1],,1>4[8:1],2,,7,1,,
{16}6h[8:1],,8<5[8:1],7,,2,8,,{32}3b<2[4:1],2,1,8,7,6,5,4,,,,,,,,,
{16}6b,,,,2,5,4,7,2h[8:1],,4-1[8:1],3,,6,4,,
{16}7h[8:1],,5-8[8:1],6,,3,5,,2bV47[16:3],,,,7bV52[16:3],,,,
{16}1b,,,,6,2,8,4,5h[8:1],,8<5[8:1],7,,2,8,,
{16}4h[8:1],,1>4[8:1],2,,7,1,,{32}5b>6[4:1],6,7,8,1,2,3,4,,,,,,,,,
{16}2b,,,,1,5,4,8,1b-5[16:1],,,1b/7b-3[16:1],,,7b/3bV52[16:3]*V58[16:3],,
{8},,,,8v3[8:1]*v5[8:1]/2,,,,
{2}2-4[8:1]/6h[8:11],3-1[8:1],
{16}2,,3,,4,,5,6,5-8[8:1],6,4,5,,,3,,
{8}7-5[8:1]/3h[8:6],,,,6-8[8:1],,,2h[8:8],
{8}7>4[4:1],,,,,5,6,7,
{16}2/8-5[8:1],,3,3,,,3,,2/8<5[8:1],,3,3,,,2,,
{16}1/8p4[8:1],,3,3,,,2,2,1,3,8,4,7,5,6,4,
{16}5-3[16:1],,,3V57[8:1],,,2,,,,1,,82,,73,,
{16}4/6v4[8:1],,,4V68[8:1],,,2,,,2,3,8,7,3,4,7,
{8}6h[4:1]/2-5[8:1],,,7h[4:1],4-1[8:1],,6,5h[4:1],
{16},1,2,3,5,3,5,3,4h[8:1],,3,5,4,6,5,7h[16:1],
{16}1,2,3,4,5/6h[8:1],,8,1,2,3,4/7h[8:1],,1h[8:1],,4,5,
{16}6,2,3,4,5/8-4[8:1],,75,,,,3h[8:1],,5,3,3,3,
{16}6,5,7,4,5,3,6,4,5,2,4,3,6,5,7,6,
{16}8,1,4<7[8:1],2,,,1,2,3,4,85,7,6,5,43,2,
{16}81,,7,75,,3,53,,8,85,,2,52,,8,8/5qq1[16:8]*pp2[16:8],
{4}8,,,,
{16}2,1,2,3,2,,7,8,7,6,7,,2,1,2,3,
{16}2,1,2,4,3,,7,8,7,5,6h[8:1],,4,6,5,7,
{16}2,1,2,3,4,,7,8,7,6,5,,3,4,2,3,
{16}2,1,2,3,4v7[8:1]*v1[8:1],,7V58[4:1],,,,,,2,3,4,5,
{16}7-4[8:1],8,6,1,7,,2-5[8:1],1,3,8,2,,7,8,6,1,
{16}7-3[8:1],8,6,1,7,,2,1,3,8,4,5,3,6,1,8,
{24}2,3,4,1,2,3,7,6,5,8,7,6,1,2,3,7,6,5,{16}3,4,2,3,
{16}1v7[16:2],,,8>4[16:2]*q5[16:2],,,,,,,,,7-3[8:1]/1-5[8:1],,,,
{16}7b/1b,,,,6,4,8,1,1b/7h[4:1],,,,1,7,3,7,
{16}5,7,1,7,3,7,65,,4b>1[8:1]/8b<5[8:1],,,,,,,,
{16}1,5,3,7,1,5,3,7,7b/1h[4:1],,,,8,1,6,3,
{16}4,1,8,3,6V83[16:3],,15,,6b/3bV58[8:1],,,,,,,,
{4}8p2[16:3]/2>5[8:1],2<5[4:1]/8,4b-8[8:1],4pp8[8:4],
{4},1-3[32:3],1bv6[8:1]*v4[8:1],,
{4}8v5[8:1]/3<8[4:1],8>4[16:3]/3,5bp4[16:5]*q6[16:5],,
{24},,,,,,8,,,4,5,4,5b,,,27,,,3b-8[8:1]/6b-1[8:1],,,,,,
{16}3b<6[8:1]/6b>3[8:1],,,,,,,,2,2,8h[8:1],,{32}3,4,5/8h[8:1],,,,3,4,
{32}5/8h[8:1],,,,3,4,5/8h[8:1],,,,3,4,5/8h[8:1],,,,3bV57[8:1]*v1[8:1],,,,,,,,,,,,,,,,
{32}6,5,4/2h[8:1],,,,6,5,4/2h[8:1],,,,1,,,,3b/8b<4[8:1],,,,,,,,{20}4bq8[40:3],,,,1b<5[40:3],
{20},,,4bq8[40:3],,,,1b,,,{16}3b,4,5,6,{12}5,4,3,
{16}2h[8:1]/6h[8:1],,,3h[8:1]/5h[8:1],,,56,,4p2[8:3]/8p4[8:1],,,,4b<1[16:4]/8b,,,,
{16},,,,2,3,4,5,68,,,17,,,34,,
{8}5/6>3[8:1],7,8,1-5[8:1],2>7[4:1],1,2b,,
{8}8,78,6q3[8:1]/1,,4h[4:1],,{32}3b,2,1,8,7,6,5,4,3b/1b,
{1},
