&title=D/N/A
&artist=25時、ナイトコードで。; 鏡音リン
&first=0.183
&des=8/3/3/0/9/9
&lv_5=12.7
&inote_5=(150)
,,,4xh[8:3],,{2}B4,B1/B7,B5,B2/B8,B1,B3/B4,B8,B6/B5,
{8}53,5,51,5,{16}53,,,46,,,75,,
{8}46,4,38,3,{16}46,,,53,,,24,,
{8}53,5,51,5,{16}53,,,46,,,75,,
{4}1b<6[8:1],4b>1[8:1],4pp6[8:1],,
{16}2,,2,,4,,4,,5-7[8:1],,5,4,,,2,,3,,4,,6,,6,,6,,,,
2,,2,,3,,3,,1,,1,,8-6[8:1],,8,1,,,
3,,{4}3,24,{8}15,
6,7,8,1-5[8:3],4,1,6,6,,
8,8,2-6[8:3],5,2,7,7b,,4x/5x,3x/4x,
{4}3-1[8:1],4-8[8:1],5-1[8:1],6v3[8:1],6qq6[4:1],6<2[4:1],,,
{16}3b/5b,,4,,3,,2,,35,,6,4,,,83,,5x-7[8:1],,8,,
1-5[8:1],,2,,{2}1,
{16}6b/4b,,5,,6,,7,,64,,3,5,,,82,,8-5[8:1]/1b-5[8:1],,,,
8b/1bpp5b[4:1],,,,{2}1bx,
{16}46,,52,,47,,5<8[8:1]/1>4[8:1],,
{2}8v1[8:1]/4v5[8:1],
{16}46,,52,,47,,5<8[8:1]/1>4[8:1],,
{2}8v7[8:1]/4v3[8:1],
{4}6-8[8:1],6/5-1[8:1],
5/4-8[8:1],4/3v6[8:1],
3pp3[4:1],,{8}7,8,1<5q1<8q4[5:13],{1}2h[8:25],,,
{8},7x,7,7,7,5,5,4,4,{16}7qq4[8:3],,,
A3/E3/E4,,,{8}A1/E2/E1,,,,,
{16}2,1,2,1,2,8,2,8,
1,8,1,8,1,7,1,7,
8,7,8,7,8,7,8,7,C,,,B5/B4,,,B8/B1,,
3x,4x,3,4,3x,2x,3,2,
3,4,3,4,3,2,3,2,
3,5,3,5,3,1,3,1,3,,,,
2x,,2x,,
{4}2-4[8:1]/5-3[8:1],5/2-8[8:1],
{16}5,,,6,5,,17,,17,,,2b,8,,4b/5b,,
{4}4h[8:3]/5h[8:2],,
3-5[8:1]/6-4[8:1],6/3-1[8:1],
{16}6,,,7,6,,8-4[8:1],,4-2-5[8:3],,4,,1,,1,,{4}1,,
{16}4x-8[8:1],,,,B5,,,,
6x-2[8:1],,,B7,,,B8,,8x-4[8:1],,,B1,,,B2,,{4}Cf,,
{16}4x-1[8:1],,,,B5,,,,
6x-3[8:1],,,B7,,,B8,,7x-4[8:1],,,B1,,,B2,,{4}Cf,,
{16}1-5[8:1],,,2,1,,2,,
8-4[8:1],,,7,8,,7,,56,,4,,31,,1,,{4}8b-4[8:1]/7b-3[8:1],,
{16}1-5[8:1],,,3,1,,3,,
8-4[8:1],,,6,8,,6,,54,,3,,21,,8,,{4}7p3[8:1]/3p7[8:1],
7-4qq5[2:3]/3-8qq1[2:3],,,,,,,,
{16}6x,,6x,,2,2,5,,8h[8:1]/7h[8:1],,,,
3,3,4,,3h[8:1]/4h[8:1],,,,
56,,56,,78,,78,,{4}Cf/B6/B5/D6/D5/B4,,
{16}1b/8b-5[25#24:1]*>5[25#24:1],,,,
7,,,,7,,,83,,,72,,61,,,61,,,72,,38,,,,,,,,
1b-4-8[25#24:1]/8b-5[25#24:1],,,,
7,,,,7,,,83,,,72,,61,,87,,18,,12,,38,,,,,,,,
{4}8-5[8:1]*-3[8:1],8b,
{16}2h[8:3],,,1bx-5[8:1],,,1x,,7hx[8:3],,,8x-4[8:1],,,8x,,C,,,,,,,,
2b-5[8:1],,,,8-4[8:1],,,,3h[4:1],,,1,,,3,,
{8}3-7[8:1],4,1-5[8:1]/3v5[8:1],8,,,,,
{16}4x-8[8:1],,,,B5,,,,
6x-2[8:1],,,B7,,,B8,,8x-4[8:1],,,B1,,,B2,,{4}Cf,,
{16}1x-5[8:1],,,,B8,,,,
7x<4[8:1],,,B6,,,B5,,3xq8[8:1],,,B1,,,B8,,{4}Cf,
{8},3,3,,,3,3<8[2:1],,,8b,8b<3[2:1],,,3,3<8[2:1],,,
8b,8b>5[2:1],,,5,5>8[2:1],,,8b,8b>5[2:1],,,5,5>8[2:1],,,
8b,8b<3[2:1],,,3,3<8[2:1],,,8b,8b<3[2:1],,,3,3<8[2:1],,,
8,8>5[2:1],,,5,5>8[2:1],,,8,8>5[2:1],,,5,5,,,
5-7[8:1],6-2[8:1],,,
4-2[8:1],3-7[8:1],,,8q5[8:1],8q1[8:1],,,2q7[8:1],2q3[8:1],,,
7v5[8:1],5-8[8:1],,,
2v4[8:1],4-1[8:1],,,8b-5-7[8:1],7b-3[8:1],,,1b-4-2[8:1],2b-6[8:1],,,
8v6[8:1],6-1[8:1],,,
3v5[8:1],5-2[8:1],,,1b-6-8[8:1],8b-4[8:1],,,2b-5-3[8:1],3b-7[8:1],,,
5-7[8:1],6-2b[8:1],,,
4-2[8:1],3-7b[8:1],,,8,8,,,8b>6b[8:3]/1b,8b/1b>6[8:2],,,
