&title=ユレ弧
&artist=原口沙輔
&first=0
&des=WhoAmI
&clock_count=4
&lv_5=叵
&inote_5=(135){1},
{8}4v7[8:1]/5,2h[8:1],{4}4>1[8:1],4<7[8:1],4>1[8:1],4<7[8:1],4>1[8:1],4-6[8:1],{8}4,2,
{8}5v2[8:1]/4,7h[8:1],{4}5<8[8:1],5>2[8:1],5<8[8:1],5>2[8:1],5<8[8:1],{12}5,C,,C,,,
{8}4v7[8:1]/5,2h[8:1],{4}4>1[8:1],4<7[8:1],4>1[8:1],4<7[8:1],4>1[8:1],4-6[8:1],{8}4,2,
{8}5v2[8:1]/4,7h[8:1],{4}5<8[8:1],5>2[8:1],5s1[4:3],,,{12},C,,C,,,
{8}1>4[8:1],,5p1[8:1],6,8<5[8:1],,4q8[8:1],3,1>4[8:1],,5p1[8:1],6,8-4b[12:1],,8x,,
1v4[8:1],,5>2[8:1],6,8v5[8:1],,4<7[8:1],3,1v4[8:1],,5>2[8:1],6,8p4b[12:1]*<5b[12:1],,8x,,
8<5[8:1],,4q8[8:1],3,1>4[8:1],,5p1[8:1],6,8<5[8:1],,4q8[8:1],3,1-5b[12:1],,1x,,
8v5[8:1],,4<7[8:1],3,1v4[8:1],,5>2[8:1],6,8v5[8:1],,4<7[8:1],3,1q5b[12:1]*>4b[12:1],,1x,,
1>4[8:1],,5>1[8:1],6,8<5[8:1],,4<8[8:1],3,1>4[8:1],,5>1[8:1],6,8p4b[12:1]*<5b[12:1],,8x,,
8<5[8:1],,4<8[8:1],3,1>4[8:1],,5>1[8:1],6,8<5[8:1],,4<8[8:1],3,1q5b[12:1]*>4b[12:1],,1x,,
{16}1,,1,,5,3,,3,8,,8,,4,6,,6,2,,2,,4,3,,3,7,,7,,5,6,,6,
1,1,2,2,3,3,4,4,5,5,6,6,7,7,8,8,{8}E1,E3,E5,E7,C,,E2/B1/B8/E8/B7/B6/E6/B5/B4/E4/C,,
{24}3/4,,,1,,1q5[8:1],,,7/8,,,1,8,,,,,1q5[8:1]/3,,,2,,,1,8,,,,,1q5[8:1]/3,,,2,,,1,8,,,7,,,1/8,,3,4,,6,
5,,,8,,8<5[8:1],,,2/1,,,8,4,,,,,1>4[8:1]/6,,,7/8,,,1,5,,,,,8<5[8:1]/3,,,2/1,,,8,4,,D3,{8}A2,E2/B1/B8/E8/B7/B6/E6/B5/B4/E4/C,,
{24}6/5,,,8,,8p4[8:1],,,2/1,,,8,1,,,,,8p4[8:1]/6,,,7,,,8,1,,,,,8p4[8:1]/6,,,7,,,8,1,,,2,,,8/1,,6,5,,3,
4,,,1,,1>4[8:1],,,7/8,,,1,5,,,,,8<5[8:1]/3,,,2/1,,,8,4,,,,,1>4[8:1]/6,,,7/8,,,1,5,,D7,{8}A7,E2/B1/B8/E8/B7/B6/E6/B5/B4/E4,C,
{24}3/4,,,1,,1q5[8:1],,,7/8,,,1,8,,,,,1q5[8:1]/3,,,2,,,1,8,,,,,1q5[8:1]/3,,,2,,,1,8,,,7,,,1/8,,3,4,,6,
5,,,8,,8<5[8:1],,,2/1,,,8,4,,,,,1>4[8:1]/6,,,7/8,,,1,5,,,,,8<5[8:1]/3,,,2/1,,,8,4,,D3,{8}A2,E2/B1/B8/E8/B7/B6/E6/B5/B4/E4/C,,
{24}6/5,,,8,,8p4[8:1],,,2/1,,,8,1,,,,,8p4[8:1]/6,,,7,,,8,1,,,,,8p4[8:1]/6,,,7,,,8,1,,,2,,,8/1,,6,5,,3,
4,,,1,,1>4[8:1],,,7/8,,,1,5,,,,,8<5[8:1]/3,,,2/1,,,8,4,,,,,1>4[8:1]/6,,,7/8,,,1,5,,D7,{8}A7,E2/B1/B8/E8/B7/B6/E6/B5/B4/E4/Ch[16:3],,
E3/B2/B3/E7/B6/B7,,4/5,2>4[8:1]/7<5[8:1],4/5,2/7,,,
E1/B1/B8/E5/B4/B5/C,,{16}1/8,1/8,2p5[4:1]/7q4[4:1],,1/8,1/8,2/7,,{8},,
E3/B2/B3/E7/B6/B7,,4/5,2>4[8:1]/7<5[8:1],4/5,2/7,,,
E1/B1/B8/E5/B4/B5/C,,1/8,2/7,{16}1p4[8:1]/8q5[8:1],1/8,2/7,,{8}1/8,,
E6/B5/B6/1x-4[8:1],,1x-3[8:1]/5,7<5[8:1],1x-4[8:1]/5,7,1x-3[8:1],,
E8/B7/B8/1x-4[8:1],,{16}1x-3[8:1]/8,8,7v5[4:1],,1x-4[8:1]/8,8,7,,{8}1x,,
E4/B4/B3/8x-5[8:1],,8x-6[8:1]/4,2>4[8:1],8x-5[8:1]/4,2,8x-6[8:1],,
E2/B2/B1/8x-5[8:1],,8x-6[8:1]/1,2,{16}8x-5[8:1]/1-4[8:1],1,2,,{8}1/8x,,
{4}1>2>3[8:1],1>2>3<4[8:1],1>2>3<4<5[8:1],1>2>3<4<5<6[8:1],1,{16}1,8,8,,1,7,7,,{4}1,
5<6<7[8:1],5>4>3[8:1],5<6<7>8[8:1],5>4>3>2[8:1],5,{16}5,,1,,5,2,2,,{4}3/5,
{8}1x-3[8:1],,1x/5,7<5[8:1],1x-4[8:1]/5,7,1x,,
1x-3[8:1],,{16}1x/8,8,7v5[4:1],,1x-4[8:1]/8,8,7,,{8}1x,,
8x-6[8:1],,8x/4,2>4[8:1],8x-5[8:1]/4,2,8x,,
8h[8:3],,1,2,{16}8q5[8:1]/1p4[8:1],1/8,2/7,,{8}1/8,,
8<5[8:1],,4q8[8:1],3,1>4[8:1],,5p1[8:1],6,8<5[8:1],,4q8[8:1],3,1q5b[12:1]*>4b[12:1],,1x,,
1>4[8:1],,5p1[8:1],6,8<5[8:1],,4q8[8:1],3,1>4[8:1],,5p1[8:1],6,8p4b[12:1]*<5b[12:1],,8x,,
8<5[8:1],8,4q1[8:1],,8<5[8:1]*p3[8:1],,8,,1>4[8:1],1,5p8[8:1],,1>4[8:1]*q6[8:1],,1,,
8<5[8:1],8,4>1[8:1],,8-4[8:1],,4-8[8:1],,1>4[8:1],1,5<8[8:1],5,{16}1w5b[12:1],1,{8}1,A1,,
{16}5x-1b[3.03704##0.14815]/B5f,,C,B1,,C,,B5,A5,,,B1,,C,,B5,A5,,,B1,,C,,B5,A5,,{24},,5b,{4}Cf,
{24}4>1[12:1],,,5,,4,,,8,,,3,5<8[12:1],,,4,,5,,,1,,,6,4>1[12:1],,,5,,4,,,8,,,3,5,,5,4,,,{4}E2/B1/B8/E8/B7/B6/E6/B5/B4/E4/C,
{24}5<8[12:1],,,4,,5,,,1,,,6,4>1[12:1],,,5,,4,,,8,,,3,5<8[12:1],,,4,,5,,,1,,,6,4-1[8:1],,2,,,,5,,7,,,,
5<8[12:1],,,4,,5,,,1,,,6,4>1[12:1],,,5,,4,,,8,,,3,5<8[12:1],,,4,,5,,,1,,,6,4,,4,5,,,{4}E2/B1/B8/E8/B7/B6/E6/B5/B4/E4/C,
{24}1>4[12:1],,,8,,1,,,5,,,2,8<5[12:1],,,1,,8,,,4,,,7,1>4[12:1],,,8,,1,,,5,,,2,8-5[8:1],,6,,,,1,,3,,,,
1>4[12:1],,,8,,1,,,5,,,2,8<5[12:1],,,1,,8,,,4,,,7,1>4[12:1],,,8,,1,,,5,,,2,8,,8,1,,,{4}E2/B1/B8/E8/B7/B6/E6/B5/B4/E4/C,
{24}8<5[12:1],,,1,,8,,,4,,,7,1>4[12:1],,,8,,1,,,5,,,2,8<5[12:1],,,1,,8,,,4,,,7,1-4[8:1],,3,,,,8,,6,,,,
8<5[12:1],,,1,,8,,,4,,,7,1>4[12:1],,,8,,1,,,5,,,2,8<5[12:1],,,1,,8,,,4,,,7,1,,1,8,,,{4}E2/B1/B8/E8/B7/B6/E6/B5/B4/E4/C,
{2}1h[24:5]/8h[8:1],1h[24:5],{8}1h[24:5],,,1h[24:5],,,1b/8h[8:1],,
{24}2<7[12:1],3,4,{16}5,6,{24}2,,,,,,7>2[12:1],,5,6,,5,7,,,,,,2<7[12:1],,4,3,,4,2,,,,,,7v4[12:1],,5,6-1[12:1],,5,7,,,6,,,
7>2[12:1],6,5,{16}4,3,{24}7,,,,,,2<7[12:1],,4,3,,4,2,,,,,,7>2[12:1],,5,6,,5,7,,,,,,2,,4,7,,5,3,,4,6,,5,
2<7[12:1],3,4,{16}5,6,{24}2,,,,,,7>2[12:1],,5,6,,5,7,,,,,,2<7[12:1],,4,3,,4,2,,,,,,7,,5,2,,4,6,,5,3,,4,
7>2[12:1],6,5,{16}4,3,{24}7,,,,,,2<7[12:1],,4,3,,4,2,,,,,,7>2[12:1],,5,6,,5,7,,,,,,4,,3,5,,6,4,,2,5,,7,
4,3,2,{8}1h[16:1],1/8<5[8:1],7,1>4[8:1]/8,2,1/8<5[8:1],7,1>4[8:1]/8,2,1/8<5[8:1],7,1>4[8:1]/8,2,1/8,7,
{24}1q6[8:1]/8,2/7,3/6,{8}4h[16:1]/5h[16:1],1/8p3[8:1],7,1q6[8:1]/8,2,1/8p3[8:1],7,1q6[8:1]/8,2,1/8p3[8:1],7,1q6[8:1]/8,2,1/8,7,
{24}8q6[8:1]/1,7/2,6/3,{8}5h[16:1]/4h[16:1],8/1p3[8:1],2,8q6[8:1]/1,7,8/1p3[8:1],2,8q6[8:1]/1,7,8/1p3[8:1],2,8q6[8:1]/1,7,8/1,2,
{24}1q6[8:1]/8,2/7,3/6,{8}4h[16:1]/5h[16:1],1/8p3[8:1],7,1q6[8:1]/8,2,1/8p3[8:1],7,1q6[8:1]/8,2,1/8p3[8:1],7,1/8,2,{24}1/8,,7,8,,2,
{8}1>4[8:1],,5p1[8:1],6,8<5[8:1],,4q8[8:1],3,1>4[8:1],,5p1[8:1],6,8,,C,,
8<5[8:1],,4q8[8:1],3,1>4[8:1],,5p1[8:1],6,8<5[8:1],,{16}4q8[8:1],3,2,,3,2,1,,{4}C,
{8}5<8[8:1],,1p5[8:1],3,4>1[8:1],,8q4[8:1],6,5<8[8:1],,1p5[8:1],3,4,,C,,
4>1[8:1],,8q4[8:1],6,5<8[8:1],,1p5[8:1],3,4>1[8:1],,8q4[8:1],6,{16}7,6,5,,{4}C,
