&title=DEAR MY WAKER
&artist=米倉千尋
&first=0.6
&des=xxhb
&lv_1=2
&lv_2=5
&lv_3=8
&lv_4=10
&lv_5=12
&inote_1=(140)
{1}
8<5[2:1],
2,
1>4[2:1],
7,
{2}
78,6,
12,3,
56,7,
34,2,
45,36,72,,
{4}
4>8[2:1],,,,5,,,,7,,,,
5<1[2:1],,,,
4,,,,2,,,,
6h[4:3],,,4b,
35,,5,,
71,,1,,
64,,4,,
28,,8,,
25,,3,,
16,,7,,
74,,6,,
83,,2,,
4b/5b,,
{8}
,
24,,,,,,,,
75,,,,,,,,,,,
5<8[2:1],,,,,,,,
34,,,,2,,,,
56,,,,7,,,,
54,,,,27,,,,
1>4[2:1],,,,,,,,
{4}
21,,4,,8v5[2:1],,,,
34,,2,,17,,,,
78,,5,,1v4[2:1],,,,
65,,7,,82,,,,
65,,8,,4v1[2:1],,,,
78,,6,,53,,,,
34,,1,,5v8[2:1],,,,
21,,3,,46,,,,
2-6[2:1],,,,,,,,
{2}
78,6,
12,3,
56,7,
34,2,
65,7,
43,2,
87,6,
21,3,
{1}2qq5[2:1]
,6b,,,,
&inote_2=(140)
{16}
2,,,,,,5h[4:1],,,,
4,,,,,,
1>3[8:1],,,,,,8,,,,,,
,,,,
7,,,,,,4h[4:1],,,,
5,,,,,,
8<6[8:1],,,,,,1,,,,,,,,,,
{8}17,,,1,,,2,,
28,,,7,,,8,,
64,,,6,,,7,,
35,,,2,,,1,,
1b,,,,1,,8,,27,,,,,,,,
{4}
4>8[2:1],,,,5,,6,,7,,8,,
5pp8[2:1],,,,
1,,2,,3,,,,
6q8[2:1],,,4b,
35,,5,46,
71,,1,28,
64,,4,53,
28,,8,71,
25,,3,47,
16,,7,83,
74,,6,52,
83,,2,16,
4b/5b,,
{8}
,
24,,,24,,,,,
75,,,75,,,,,,,,
5w1[2:1],,,,,,,,
24,,,,75,,,,
13,,,,86,,,,
1,,2,,3,,4,,
5-1[2:1],,,,,,,,
{4}
2,1,4,5,1qq6[2:1],,,,
7,8,1,2,36,,,,
7,8,5,4,8pp3[2:1],,,,
2,1,8,7,63,,,,
6,5,8,1,5qq2[2:1],,,,
3,4,5,6,72,,,,
3,4,1,8,4pp7[2:1],,,,
6,5,4,3,27,,18,,
2>7[2:1],,,,1b,,,,
{8}82,,,8,,,7,,
71,,,2,,,1,,
35,,,3,,,2,,
64,,,7,,,8,,
53,,,5,,,6,,
64,,,3,,,4,,
28,,,2,,,3,,
71,,,6,,,5,,
{1}2qq5[2:1]
,6b,,,,
&inote_3=(140)
{16}
7,,,,,,4h[4:1],,,,
5,,,,,,
8<6[8:1],,,,,,1,,,,,,
,,,,
2,,,,,,5h[4:1],,,,
4,,,,,,
1>3[8:1],,,,,,8,,,,,,,,,,
{8}
7<5[8:1],,,1,,,2,,
4>2[8:1],,,7,,,8,,
1>3[8:1],,,6,,,7,,
8<6[8:1],,,2,,,1,,
1b,,,,1,,8,,27,,,,,,,,
{4}
8<4[2:1],,,,1,,2,,3,,4,,
1pp4[2:1],,,,
5,,6,,7,,,,
2q4[2:1],,,8b,
{8}
4h[4:1]/6,,5,,6,5,6,,
7h[4:1]/1,,8,,1,8,1,,
5h[4:1]/3,,4,,3,4,3,,
2h[4:1]/8,,1,,8,1,8,,
5h[4:1]/3,,4,,3,4,3,,
2h[4:1]/8,,1,,8,1,8,,
4h[4:1]/6,,5,,6,5,6,,
7h[4:1]/1,,8,,1,8,1,8,
27,,,,,
24,,,24,,,,,
75,,,75,,,,,,,,
8w4[2:1],,,,,,,,
24,,3,,75,,6,,
13,,2,,86,,7,,
12,,34,,56,,78,,
1bw5[2:1]/2b,,,,,,,,
7-4[8:1],,2,,8-3[8:1],,5,,
7qq4[2:1],,1,,,,,,
2h[4:1],,1,,8h[4:1],,1,,2>7[2:1],,,,,,,,
2-5[8:1],,7,,1-6[8:1],,4,,
2pp5[2:1],,8,,,,,,
7h[4:1],,8,,1h[4:1],,8,,7<2[2:1],,,,,,,,
3-8[8:1],,6,,4-7[8:1],,1,,
3qq8[2:1],,5,,,,,,
6h[4:1],,5,,4h[4:1],,5,,6<3[2:1],,,,,,,,
6-1[8:1],,3,,5-2[8:1],,8,,
6pp1[2:1],,4,,,,,,
3h[4:1],,4,,5h[4:1],,4,,3>6[2:1],,,,,,,,
3,,24,,6,,75,,1b/8b,,,,,,,,
2>4[8:1],,,8,,,7,,
5<7[8:1],,,2,,,1,,
8<6[8:1],,,3,,,2,,
1>3[8:1],,,7,,,8,,
3>1[8:1],,,5,,,6,,
8<6[8:1],,,3,,,4,,
5<7[8:1],,,2,,,3,,
4>2[8:1],,,6,,,5,,
{1}2qq5[2:1]
,6b,,,,
&inote_4=(140)
{16}
3,,,,,,8h[4:1],,,,
1,,2,,3,,
4>2[8:1],,,,,,5,,,,,,
,,,,
6,,,,,,1h[4:1],,,,
8,,7,,6,,
5<7[8:1],,,,,,4,,,,,,,,,,
4b/5b,,,3,,,2h[16:4],,,,1<7[8:1],,2,,2,,
3h[8:3],,,4,,,5<7[8:1],,,,,,4,,4,,
5,,,6,,,7h[16:4],,,,8>2[8:1],,7,,7,,
6h[16:3],,,5h[16:3],,,4,,
4w8[4:1],,,,,,,,,,,,,,,,
5,,,,2,,,,{4}8b,,,,
8-4[4:1],,,,4>1[8:1],,7<4[8:1],,2qq7[2:1],,6,,
6p4[2:1],,,,
4-8[8:1],,2>5[8:1],,7p2[2:1],,,,
2q4[2:1],,,8b,
{16}
6h[8:3],,,5,,,4,,3,,4,,34,,5,,
3h[16:3]/4,,,5,,,6,,7,,8,,78,,,,
3h[8:3],,,4,,,5,,6,,5,,65,,4,,
6h[16:3]/5,,,4,,,3,,2,,1,,21,,,,
2h[8:3],,,1,,,8,,7,,8,,78,,1,,
7h[16:3]/8,,,1,,,2,,3,,4,,34,,,,
7h[8:3],,,8,,,1,,2,,1,,21,,8,,
2h[16:3]/1,,,8,,,7,,6,,5,,65,,65,,7/4b,,,,,,,,,,
3b/5b,,,5b/7b,,,7b/1b,,,,,,,,,,
6b/4b,,,2b/4b,,,2b/8b,,,,,,,,,,,,,,,,
1-5[8:1],,,,,,,,
8w4[8:1],,,,,,,,
3>1[8:1],,,4,,,4,,
6<8[8:1],,,5,,,5,,
2>4[8:1],,,1,,,1,,
7<5[8:1],,,8,,,8,,
{8}1,2,3,4,5,6,7,8,18,,,,,,,,{16}
2b/7h[16:4],,,4,4h[4:1],,,5,5h[4:1],,,2,2h[4:1],,,8,8qq5[2:1],,,,4,,4,,,,
,,,,2,,2,,,,7,,16,,,,2<7[4:1],,3,,4,,,,,,,,,,6,,,,4,,,,
7b/2h[16:4],,,5,5h[4:1],,,4,4h[4:1],,,7,7h[4:1],,,1,1pp4[2:1],,,,5,,5,,,,
,,,,7,,7h[16:3],,,6h[16:3],,,5,,4-1[8:1],,,,,,6,,2h[16:3],,,3h[16:3],,,4,,27,,1,,27,,8,,
3b/6h[16:4],,,1,1h[4:1],,,8,8h[4:1],,,3,3h[4:1],,,5,5pp8[2:1],,,,1,,1,,,,
,,,,3,,3,,,,6,,47,,,,3<6[4:1],,2,,1,,,,,,,,,,7,,,,1,,,,
6b/3h[16:4],,,8,8h[4:1],,,1,1h[4:1],,,6,6h[4:1],,,4,4qq1[2:1],,,,8,,8,,,,
,,,,6,,6h[16:3],,,7h[16:3],,,8,,1-4[8:1],,,,,,7,,3h[16:3],,,2h[16:3],,,1,,36,,4,,36,,5,,
{8}5,6,7,8,1,2,3,4,4/5w1[4:1],,,,,,,,
{16}
1/8b,,,2,,,3h[16:4],,,,4<6[8:1],,3,,3,,
2h[8:3],,,1,,,8<6[8:1],,,,,,1,,1,,
8,,,7,,,6h[16:4],,,,5>3[8:1],,6,,6,,
7h[16:3],,,8h[16:3],,,1,,25,,3,,47,,5,,
8/1b,,,7,,,6h[16:4],,,,5>3[8:1],,6,,6,,
7h[8:3],,,8,,,1>3[8:1],,,,,,8,,8,,
1,,,2,,,3h[16:4],,,,4<6[8:1],,3,,3,,
2h[16:3],,,1h[16:3],,,8,,74,,6,,52,,1,,
{1}2qq5[2:1]
,6b,,,,
&inote_5=(140)
{16}
6,,,4,,,1h[4:1],,,,
3,,2,,4h[8:4],,
7,,,6,,,5<7[8:1],,,,,,
4,,4,,
3,,,5,,,8h[4:1],,,,
6,,7,,5h[8:4],,
2,,,3,,,4w8[8:1],,,,,,,,,,
4b/5b,,,4,3,,3h[16:2]/4,,1,3,1,,{24}8,2,8,2,,,
{16}
17,,,8,7,,7h[16:2]/8,,6,7,4,6,3,5,2,,
45,,,5,6,,6h[16:2]/5,,8,6,8,,{24}1,7,1,7,,,
{16}
2,4,,7,5,,36,,
4,5,3,6,2,7,1,8,2qq5[4:3],,,,,,,,
4,,,,7,,,,{4}1b,,,,
1-5[4:1],,,,5<8[8:1],,2>5[8:1],,7pp2[2:1],,3,,
3q5[2:1],,,,
5-1[8:1],,7<4[8:1],,2q7[2:1],,,,
7p5[2:1],,,1b,
{16}
2/6<1[8:1],,,5,6,,4,,3,5,4,,35,,4,5,
3h[16:3],,,2,3,,12,,1,2,8,1,7/2h[8:1],,4,4,
3>8[8:1],,,4,3,,5,,6,4,,4,6,,5,4,
6h[16:3],,,7,6,,78,,1,1,8,8,2/7h[16:3],,,,
7<4[8:1]/8,,,1,7,,3,,2,4,3,,24,,2,1,
3/8h[16:3],,,1,8,,25,,2,5,4,5,3h[8:1],,1,1,
2>5[8:1],,,8,2,,6,,7,5,,5,7,,8,8,
6b/1h[16:3],,,8,1,,7b/4,,7,4,7,6,7,2,7,8,7b,,,,,,,,,,
7b/1b,,,1b/3b,,,3b/5b,,,,,,,,,,
2b/8b,,,6b/8b,,,6b/4b,,,,,,,,,,,,,,,,
5bw1[8:1],,,,,,,,
1,8,1,8,1,8,1,8,
2<7[8:1],,,4,2,,5,,
6q2[8:1],,,1,6,,4,,
3q7[8:1],,,8,3,,5,,
6>3[8:1],,,1,6,,2,,
2,1,2,6,2,3,2,8,2,5,2,1,2,7,2,4,2bqq5[2:1],,,,,,,,,,,,,,,,
4b/7b-3[16:1],,,8-4[16:1],8,,,1-5[16:1],1,,,2-6[16:1],2,,,3>5[16:5],3,,,,4,,4h[2:1],,,,
,,,,6,,7<4[8:1],,,3,7,,2<7[8:1],,,,7,,6,,5h[16:5],,3,,,3,5,,35,,6,4,5,,18,,74,,
5b/2b-6[16:1],,,1-5[16:1],1,,,8-4[16:1],8,,,7-3[16:1],7,,,6<4[16:5],6,,,,5,,5h[2:1],,,,
,,,,3,,2>5[8:1],,,6,2,,8,,2,8,1,,28,,17,,3,1,,6,8,,45,,3,6,1,8,2,5,8,7,
1b>4[16:1],,,6<1[16:1],6,,,4q8[16:1],4,,,1q5[16:1],1,,,8>6[16:5],8,,,,7,,7h[2:1],,,,
,,,,2,,2-6[8:1],,,7,2,,8-4[8:1],,,,3,,2,,1h[16:5],,6,,,6,1,,61,,6,1,8,,45,,17,,
2b/8b<5[16:1],,,3>8[16:1],3,,,5p1[16:1],5,,,8p4[16:1],8,,,1<3[16:5],1,,,,2,,2h[2:1],,,,
,,,,7,8,7-3[8:1],,,2,7,,1-5[8:1],,8h[8:3],,,,,,2,,8,3,,3,8,,38,,3,8,1,,12,,7,8,
6,5,6,2,6,7,6,4,6,8,6,3,6,5,6,1,7b-3[2:1],,,,,,,,,,,,,,,,
3/5h[16:3],,,8,5,,16,,7,2,8h[4:1],,{24}1,2,3,4,,,
{16}
7h[16:3]/4,,,8,7,,17,,7,1,8,,24,,35,,
6/4h[16:3],,,1,4,,83,,2,7,1h[4:1],,{24}8,7,6,5,,,
{16}
2h[16:3]/5,,,1,2,,82,,1,8,2,5,3,6,4,7,
3h[16:3]/8,,,5,3,,24,,1>4[8:1],8,1,,{24}4,5,6,7,,,
{16}
5/7h[16:3],,,1,7,,64,,2,1,82,,35,,71,,
1/6h[16:3],,,4,6,,75,,8<5[8:1],1,8,,{24}5,4,3,2,,,
{16}
18,,2,4,,7,5,,3,7,1,8,2,6,4,5,2b-6[2:1]/7h[8:7],,,,,,,,,,,,,,
{24}
6b,5,4,7/3h[4:10],,,{1},,,,
{1},,
