&title=Flip Flap Festival!
&artist=Synthion (for ブルーアーカイブ OST 224)
&first=0.65
&des=キキちゃん@山海経(for MMFC 12th)
&des_5=キキちゃん@山海経(for MMFC 12th)
&lv_5=13
&inote_5=(126)
{8}6h[8:1],5,4/B6,,7h[8:1],4,3/B7,,5h[8:1],3,2/B5,,8h[8:1],4,3/B8,,
{8}3h[8:1],4,5/E4,,2h[8:1],5,6/E3,,4h[8:1],6,7/E5,,1s5[4:1],5,6/A1,,
{48}6h[8:1],,,,,,,,,,,,6h[8:1]/B4,E5,,,,,,,,,,,7h[8:1]/3,,,,,,,,,,,,7h[8:1]/B4,E5,,,,,,,,,,,5h[8:1]/2,,,,,,,,,,,,5h[8:1]/B4,E5,,,,,,,,,,,6h[8:1]/1,,,,,,,,,,,,6h[8:1]/B4,E5,,,,,,,,,,,
{48}3h[8:1],,,,,,,,,,,,3h[8:1]/B5,E5,,,,,,,,,,,2h[8:1]/6,,,,,,,,,,,,2h[8:1]/B5,E5,,,,,,,,,,,
{1}1v4V68[8:5]*v6V42[8:5],
{8}1b>5[4:1],,5<1[4:1],,1V35[4:1],,5,6,7qq4[8:5],8,1,2,3-8[8:1],,,,
{8}8<4[4:1],,4>8[4:1],,8V64[4:1],,4,3,2pp5[8:5],1,8,7,6<1[8:1],,,,
{8}4>8[4:1],,8<4[4:1],,4p6[4:1],,6<4[2:1],5,4,5,6,7,8z4[16:3]*>4[16:3],,,,
{8}5<2[4:1],,2V86[4:1],,5,4,3,2,
{16}1x,5x,2x,6x,3xV51[4:1],,2x,,1xw5b[12:1],,,,Cf,,,,
{8}2-6[12:1]/1,3/4,2/8h[8:1],,7-3[12:1]/8,5/6,1h[8:1]/7,,
{32}1h[8:1]/8-3[12:1],,,,,,7,6,5/8,,,,7,,,,7qq5[8:1]/4v1[8:1],,,,,,,,7/4,,,,,,,,
{8}3-8[12:1]/4,2/1,3/5h[8:1],,5/6-1[12:1],7/8,4h[8:1]/6,,
{32}2/5h[8:1],,,,,,3,4,1/5h[8:1],,,,8,,,,7h[4:1],,,,A3/E4/A4,,,,A3/E4/A4,,,,,,,,
{8}2/1-5[12:1],3/4,1/7h[8:1],,7/8-4[12:1],6/5,8/2h[8:1],,
{16}1qq7[8:1],,,6,1>5[8:1],,5,,1,,
{32},,8,7,
{16}6/5pp7[8:1],,4,,3qq1[8:1]/5,,,,3/7,,6,,5v3[8:1],,4,,3s7[4:1]/5z1[4:1],,,,,,,,,,8,,8h[4:1],,A3/E4/A4,,A3/E4f/A4,,,,
{8}8/7v4[12:1],5/6,3h[8:1]/7,,1/2v5[12:1],4/3,6h[8:1]/2-8[12:1],,
{32}2/7h[8:1],,,,,,1,2,3h[8:1]/7,,,,8,,,,1qq7[8:1]/5qq3[8:1],,,,,,,,1/5,,,,,,,,
{8}1/7pp1[8:1],4/6,3h[8:1]/7,,8/2qq8[8:1],5/3,6h[8:1]/2>5[12:1],,
{32}2/8h[8:1],,,,,,8,7,6h[4:1]/5,,,,3,,,,1h[4:1],,,,A6/E6/A5,,,,A6/E6/A5,,,,,,,,
{8}4/6-1[12:1],7/8,5h[8:1]/6,,5/3-8[12:1],2/1,4h[8:1]/3,,
{16}1-5[12:1]/5,,,7,1qq7[12:1]*pp3[12:1],,8,,1,,
{32},,8x,7x,6x-2[12:1]/2-4[12:1],,,,1,,,,
{8}6/2V86[16:3],,4,3,2v8[8:1],1,2z6[8:5]/8s4[8:5],,,,,,,,
{32}5x,4x,3x,2x,1x,8x,7x,6x,
{8}5xpp5[4:7]/2x>4[8:1],,,,4>2[8:1],,,,1>4[8:1],,,,E3/B3,,5pp5[4:7],,4>1[8:1],,4,,1>4[8:1],,1,,4-2[8:1],,4-8[8:1],,4,,B8/B1/E1,,
{16}3/4h[8:1],,3,,2h[8:1]/5,,5,,1/6h[8:1],,1,6,1,,7/8,,
{16}1/2h[8:1],,1,,8h[8:1]/3,,3,,4h[8:1]/7,,7,4,7,,5/6,,
{16}3,5,4,5,2,6,4,5,1,8,2,7,
{32}A1,A2,A3,A4,A5,A6,A7,A8,
{16}1x,8x,2x,7x,1x-6-1[16:3]*-4-1[16:3],,3x/7x,,1xw5b[12:1],,,,Cf,,,,
{8}3b-5[12:1]/7b,1/5,3/7,1,3/7-1[12:1],1/5,3-8[12:1]/7-4[12:1],5,
{32}3/7,,,,,,1,2,3v8[8:1]/5v8[8:1],,,,1/7,,,,3V57[8:1]/5V31[8:1],,,,,,,,,,,,,,,,
{8}6-4[12:1]/2,8/4,6/2,8,6/2-8[12:1],8/4,6-1[12:1]/2-5[12:1],4,
{32}6/2,,,,,,8,7,6h[4:1]/4,,,,3,,,,2h[4:1],,,,A5/E5/A4,,,,A5/E5/A4,,,,,,,,
{8}3-6[12:1]/7,1/5,3/7,1,3/7-2[12:1],1/5,3-8[12:1]/7-3[12:1],5,
{16}7/3-6-1[4:1],,,2,,,3x,,5v8[8:1],,
{32},,7,6,5/4,,,,2,,,,
{8}1V35[4:1],,1/5V31[4:1],7,1V74[4:1],6,4>5b[2:1],,B7/B6/E7f,,,,7xh[8:1],E5/A5/A4,E5f/A5/A4/8>3[8:1]*qq5[4:3],,
{8}8b,,5x>2[8:1],,5xpp8[4:3],,1,2,3,4,5x,4,3xs7[16:3],,,,
{8}1<6[8:1],,1pp4b[2:1]/2,,1x/5x,,6,7,
{4}A8/D1f/E1,2bh[8:1]/E6f/D6/A5,
{8}8bz4b[8:1]/A3f/D4/E4,4s8b[8:1],,,Chf[4:1],,A1/B1/B2/A2/A3/B3/A4/B4/A6/B6/B5/A5/A7/B7/B8/A8,,
{8}1-6[8:1],,1/3,2,1-5[8:1],8,7p4[8:3]/1,8,7/2-5[8:1],,2,,
{8}8-3[8:1],,7<4[8:1]/8,,7/2-5[8:1],1,2/7-3[8:1],8,7b<6-4<5-3>2-8>1-7b[4:3]/A5/E5f/A4,,,,,,,,
{8}3h[8:1],4,E3/5h[8:1],,6h[8:1],5,E7/4h[8:1],,
{32}7h[8:1],,,,3,,E7,B6,B5/2h[8:1],,,,4x,,,,
{8}4x-8[8:1],E2,E3/A4,,
{8}6h[8:1],5,E7/4h[8:1],,3h[8:1],4,E3/5h[8:1],,
{32}2h[8:1],,,,6,,E3,B3,B4/7h[8:1],,,,5x,,,,
{8}5x-1[8:1],E8,E7/A5,,
{8}2h[8:1],4,E2/5h[8:1],,7h[8:1],5,E8/4h[8:1],,
{32}6h[8:1],,,,3,,E7,B7,B8/2h[8:1],,,,1xh[8:1],,,,3h[8:1],,,,8,,E4,B4,B5/7h[8:1],,,,,,,,
{8}5/6h[8:1],4,3/E7,2,1h[8:1],8,7/E1,6,
{16}5x,4x,6x<2b[8:1],3x,7x,,4x,,5x-1[8:1],,8bx,,8bx,,,,
E
