&title=ヘルシーエンド
&artist=椎名もた (ぽわぽわP)
&first=0.0333
&des=?
&lv_6=13+
&inote_6=(150)
{1},
{8}4h[8:3],,,5,6,4,3,5h[8:2],,3,4,5,6pp5[8:10],{16},5,{8}5h[8:1],,,,,,,,,,,,,
4,3,5,6,4h[8:2],,5,4,3,5,6,4,3h[4:1],,5pp4[8:10],,{16}4,4,4,,,3,,,3h[8:13],,,,,,,,,,,,,,,,,,
{8},4,4-8[8:2],,,,,,
{16}4,,,,4,,,,5<8[8:2]/4,,,,4,,,,
4,,,,4,,,,4>1[8:2]/5,,,,4,,,,
4h[4:1],,,,8h[4:1],,6,,5h[4:1],,,,1h[4:1],,3,,
4h[4:1],,,,8>3[4:1],,6,,5h[4:1],,,,,,,,
5,,,,5,,,,4>1[8:2]/5,,,,5,,,,
5,,,,5,,,,5<8[4:1]/4,,,,5,,,,
5h[4:1],,,,1h[4:1],,3,,4h[4:1],,,,8h[4:1],,6,,
5h[4:1],,,,1h[4:1],,3,,4,,5>1[4:1],,6,,5<1[4:1],,,,,,,,
3,,4,,5>3[8:1],,6,,5<3[16:6],,,,
3,,4,,5s1[16:5],,5,,,,,,,,
5h[4:1],,,,8>3[16:3],,4,,6,,,,1<6[16:3],,5,,3,,,,
1h[4:1],,3,,4,,5-1[8:1],,6h[8:3],,5,,,,8,,7,,
6,,5,,4-8[8:1],,3h[8:3],,4>5[16:6],,,,
,,,,4z8[16:5],,4,,,,,,,,
4h[4:1],,,,1<6[16:3],,5,,3,,,,1-4[12:1]/4-1[12:1],,8-5[12:1]/5-8[12:1],,,,,,,,,,27,,3b/6b,,,,,,
{8}2h[4:1]/5,,5,3,7h[4:1]/4>2[8:1],,4,6,4<6[8:1]/2h[4:1],,4,2,4>2[8:1]/7<5[8:1],,
,,1/5h[8:3],,7,6,8/4h[8:3],,2,3,1/5qq5[16:5]*pp5[16:5],,,,,,3/7,,
6h[4:1]/1-5[8:1],,1,7,3h[4:1]/8-4[8:1],,8,2V48[16:4],6V83[16:4]*V85[16:4],,,,,,17,,
6/2>4[8:1],2/6h[4:1],,,6/2>4[8:1],2/6h[4:1],,,
6>8[1:1]/2>8[8:8],2/6,,,,,,,,,,,
{16}
7-4[8:1],,,4,,,8>7[16:6],,3h[4:1]/7b,,,,,,,,
2-5[8:1],,,5,,,1<2[16:6],,6h[4:1]/2,,,,,,,,
8-4[8:1],,,,1,,2,,7h[4:1]/3-5[8:1],,,,3-8[8:1],,,,3/5,,5h[4:1],,8,,8>3[8:1],,,,
{24}48,,,{16}6,,,,
8>3[8:1],,,38,,,6<5[16:6],,8h[4:1]/4,,,,,,,,
1<6[8:1],,,61,,,3>4[16:6],,1h[4:1]/5,,,,,,1,,
1-5[8:1],,5-1[8:1],,1,,6,,6-4[8:1],,,,6-1[8:1],,2,,63,,4h[4:1],,1,,1<6[8:1],,,,
{24}51,,,{16}2,,{24}7,,,{16}8p4[8:1]/1,,,8/4>4[16:7]*<4[16:7],,,,,,,,,,,,,
2q6[8:1],,,2/6>6[16:7]*<6[16:7],,,,,,,,,,,,,
7p3[8:1],,,7/3,,,2<7[8:1],,2,,5V31[16:3],,,1V75[16:3],,,
5V31[16:3],,,1w5[16:2],,,,,,,73,,37,,,,
2qq8[32:3]/6-8[32:3],,,2>8[16:5]/6>8[16:5],,,,,,,,,,,,,
7qq5[32:3]/3-5[32:3],,,7>5[16:5]/3>5[16:5],,,,,,,,,,,,,
2-6[32:3]/6,,,2/6-2[32:3],,,7,,7-4[12:1],,5,,,1-6[12:1],,,7,,,3-8[12:1],,,1,,,
5p4[16:4],,,8h[4:1],,,,,,,,27,,36,,
{16}4,,5h[16:3],,4,,,3,4,,3h[16:3],,4,,,5,
4,,5h[16:3],,4,,,6,4,,6h[16:3],,4,,,5,
4,,5h[16:3],,4,,,2,4,,2h[16:3],,4,,,5,
4,,5h[16:3],,4,,,6,4,,6h[16:3],,4,,,7,
4,,7-5[16:1],,4,7,,1,4,,1-3[16:1],,4,1,,7,
4,,7-5[16:1],,4,7,,1,4,,1-3[16:1],,4,1,,7,
4-8[8:1],,7-5[16:1],,4,7,,1,4-8[8:1],,1-3[16:1],,4,1,,7,
4<6[75#48:2]*<7[75#48:3]*<8[75#48:4]*<1[75#48:5]*<2[75#48:6]*<3[75#48:7],,,,,,,,,,,,,,,,{12}
5h[12:1]/4b>2[12:1],,6h[12:1],4,7h[12:1],,8h[12:1],5,
1h[12:1],4,2h[12:1],,3h[12:1]/1<7[12:1],,4h[12:1],1,
5h[12:1],,6h[12:1],3,7h[12:1],2,{24}8h[12:1],,{12},
1h[12:1]/7<5[12:1],,2h[12:1],7,3h[12:1],,4h[12:1]/2>4[12:1],,
5h[12:1],2,{24}6h[12:1],,{12},7h[12:1]/5h[12:1],,8h[12:1]/4h[12:1],,
1h[12:1]/3h[12:1],,
{8}2-6[32:3],4,8w4[32:3],,8b,,17,,{16}3-7[8:1],,,37,,,
1,,1<6[8:1]/5>2[8:1],,,,15,,,,8>3[8:1]/4<7[8:1],,,,84,,,,
1/5-2[8:1],,,,8/5-8[8:1],,7,,15,,2<3[8:3],,6h[8:4]/4,,,,,,,,,,,,
5/1h[4:1],,,,8,,72,,
3-8[8:1]/6,,,,6,,5,,4h[8:3],,8h[4:1],,,,,,4<7[16:3],,7,,
8qq3[32:11],,1h[16:6],,,,,,,,,,
2-5[8:1]/7,,,,7,,8,,1h[8:3],,5h[4:1],,,,,,5>2[16:3],,2,,
1pp6[32:11],,8h[16:6],,,,,,,,,,
{8}7/8-4[8:1],1,7,6,1/8-4[8:1],7,1,2,
8/1-3[12:1],,{16}8,8pp4[48:13],,,{8}7-5[12:1],{16},,{8},,
4-8[8:1]/3,5,2,{16}1,2,{8}3-6[8:1],7-2[8:1],3,7,5h[4:1],,
{16}1p5[32:3],5p1[32:3],,,,,,7,{8},3,
2/1-5[8:1],8,2,3,8/1-5[8:1],2,8,7,
1/8-6[12:1],,{16}1,1qq5[48:13],,,{8}2-4[12:1],{16},,{8},,
5-1[8:1]/6,4,7,8>3[16:3],2>5[16:3],4<7[16:3],6<1[16:3],
8>7[16:7]*z4[8:15],,,,,,,,,,
{16}7h[8:1],,,8h[8:1],,,1h[8:1],,,2h[8:1],,,3,,,,
45,,3,1h[8:1],,2,8h[8:1],,1,7h[8:1],,8,6h[8:1],
{48}2,3,4,5b-1[1:2],
