&title=AiAe
&artist=Yuyoyuppe
&first=0
&lv_6=14
&des_6=FFFFLaN
&inote_6=
(180){4},{1},{4},,{16}1x,
1x,1x,1x,
{8}1x,5,3/4,{16}6,5,{8}7,4,4/6,5,
3/4,6,7/5,{16}3,4,{8}3,5,4/6,2,
3/8,7,6/5,{16}3,4,{8}2,1,8/4,5,
6/4,{16}3,4,{8}2,1,{16}6,3,5,4,{8}6,8,
2,5,4/3,2,{16}8,5,7,4,{8}6,1,
5/3,6,7/2,8,{16}2,5,3,6,{8}4,5,
8,1,5/2,4,{16}3,4,{8}3,2/5,6,
4/7,{16}5,6,{8}5,7/4,{16}3,6,2,5,{4}1h[4:1],
{8}6b,{16}4,5,{8}3,2/4,{16}5,3,6,4,{8}7,3,
2/4,{16}5,4,{8}6,7/5,{16}4,6,3,5,{8}2,7,
6/8,{16}1,8,{8}2,3/1,{16}8,2,7,1,{8}6,2,
3/1,{16}8,1,{8}7,6/8,{16}1,7,2,8,{4}3,
{8}3/8,2/7,{4}6/1,{16}3,4,{8}3,{4}2/5,
{8}6/1,7/2,{4}3/8,{16}6,5,{8}6,{4}7/4,
{8}4/3,2,{4}1/8,{8}8/7,6,{4}5/4,
5h[8:1]/1h[8:1],3h[8:1]/7h[8:1],{8}2/8h[8:1],{16}1,1,{24}7,6,5,2,3,4,
{1}5bq8[8:11],
,1p6[4:5],
{2},A6f,
5/4p7>1[16:21],B6,
B8,B2,
4/5<1[2:1],B3,
{8}8/1-4[8:1],,,5,{4}5w1[8:1],Cf,
5/6h[8:1],5/6h[8:1],5/4h[8:1],5/4h[8:1],
4/3h[8:1],4/3h[8:1],4/5h[8:1],4/5h[8:1],
6h[8:1]/B5,7h[8:1]/B4,3h[8:1]/B5,2h[8:1]/B4,
6h[8:1]/B5,7h[8:1]/B4,3h[8:1]/B5,2h[8:1]/B4,
{8}4/5h[8:1],3,8/2h[8:1],7,1/6h[8:1],2,5/3h[8:1],6,
4/7h[8:1],3,6/2h[8:1],7,3/8h[8:1],2,6/1h[8:1],5,
{16}3,4,2,5,1,6,8,7,{32}1,2,3,4,5,6,7,8,1,2,3,4,5,6,7,8,
{4}1bw5[8:1],1,3b/7b,{8}1/8,{32}1,8,{16}1,
{4}7-4[8:1],{8}7/8,1,{4}2-5[8:1],{8}2/1,8,
{4}7-4[8:1],{8}7/4,3,{4}2-5[8:1],{8}8/2,7,
{4}6-1[8:1],{8}6/5,4,{4}3-8[8:1],{8}3/4,5,
{4}6-1[8:1],{8}6/1,2,{2}3x/4xw8[8:1],
{4}5/7-3[8:1],{8}3,2,{4}4/1-5[8:1],{8}6,7,
{4}5/8-4[8:1],{8}3,2,{4}5/1-5[8:1],{8}6,7,
{4}4/8-3[8:1],{8}2,1,{4}5/1-6[8:1],{8}7,8,
{4}8h[8:1]/1h[8:1],{8}1-5[8:1]/8-4[8:1],7/2,{4}8/1,{16}3,4,3,4,
{4}2b>5[8:1],{8}1,8,7<4[8:1],7,8,1,
2-5[8:1],2,1,8,7-4[8:1],7,1,2,
3>8[8:1],3,4,5,6<1[8:1],6,5,4,
3-8[8:1],3,4,5,{4}6-1[8:1],4x/6x,
{8}4-8[8:1],4,5/4,6,7-2[8:1],7,7/5,4,
3-8[8:1],3,3/4,5,6-1[8:1],6,6/4,3,
2-5[8:1],2,{4}1/2,{8}7-4[8:1],7,{4}8/7,
{8}2,{16}6,5,{8}7,{16}3,4,{8}2,{16}8,1,{8}8,2/7,
1h[16:1],8h[16:1],4/7h[16:1],6h[16:1],,3h[16:1],{4}2/4h[16:1],
{8}4h[16:1],5h[16:1],4/6h[16:1],7h[16:1],2h[16:1],1h[16:1],{16}3x,8x,3x,8x,
{8}3xh[16:1],7h[16:1],1/6h[16:1],5h[16:1],,2h[16:1],{4}4/3h[16:1],
{8}4/5h[16:1],6h[16:1],3/7h[16:1],8h[16:1],2h[16:1]/1h[16:1],3h[16:1],5x/4x,{16}4x,5x,
{8}4x,3h[16:1],6/2h[16:1],1h[16:1],,8h[16:1],{4}1/7h[16:1],
{8}4h[16:1],5h[16:1],3/6h[16:1],7h[16:1],{16}1x,8x,{8}1x,{16}5x,4x,5x,4x,
{8}5x,3h[16:1],4/2h[16:1],1h[16:1],,6,{4}5h[16:1]/4h[16:1],
{8}7h[16:1],6h[16:1],4/5h[16:1],3h[16:1],3h[16:1],2h[16:1],{4}1h[8:1]/5h[8:1],
{8}6/8h[16:1],1h[16:1],2h[16:1],1/3h[16:1],,6,{4}5/7h[16:1],
{8}5/4h[16:1],3h[16:1],4/2h[16:1],1h[16:1],4/5h[16:1],6h[16:1],{16}7x,5x,7x,5x,
{8}7x,4h[16:1],8/3h[16:1],2h[16:1],,5h[16:1],{4}3/6h[16:1],
{8}4/3,5,5/6,7,1h[16:1],8h[16:1],{16}2x,1x,2x,1x,
{8}2x,3h[16:1],6/4h[16:1],5h[16:1],,1,{4}2/8,
{8}4/3h[16:1],5h[16:1],4/5h[16:1],3,{16}3x,4x,{8}3x,{16}7x,8x,7x,8x,
{8}7x,6h[16:1],5/3,4,5,1,7/2,6,
4/5,{24}2,3,4,{8}5,{24}7,6,5,{4}4b,1/8,
{8}3/4-8[8:1],3,3,3,3/7-4[8:1],3,3,3,
3/5-1[8:1],3,3,3,3/8-4[8:1],3,3,3,
3/5v2[8:1],3,3,3,3/1v6[8:1],3,3,3,
3/7v4[8:1],3,3,3,3/5-1[8:1],3,3,3,
6/5v8[8:1],6,6,6,6/7-2[8:1],6,6,6,
6/3-8[8:1],6,6,6,6/1-4[8:1],6,6,6,
6/5v2[8:1],6,6,6,6/1-7[8:1],6,6,6,
6/8-4[8:1],6,6,6,4/5,4/5,{16}4,5,4,5,
{8}3b/6,2,1-5[8:1],1,1/6,7,8-4[8:1],8,
8/3,2,1-5[8:1],1,1/6,7,8-4[8:1],8,
8/4,3,2-5[8:1],2,5/2,6,7-4[8:1],7,
7/4,3,2-5[8:1],2,2/5,6,7-4[8:1],7,
7bx/3b,2,5/1-5[8:1],1,1/6,7,4/8-4[8:1],8,
{48}8bx/3b,B8,C,B4,,,{8}2,{48}1x/5,B1,C,B5,,,{8}6,{48}4x/7x,B7,C,B3,,,{8}3x,{48}2x/6x,B2,C,B6,,,{8}7x,
{16}2,1,3,8,4,7,5,6,{32}4,3,2,1,8,7,6,5,4h,3h,2h,1h,8h,7h,6h,5h,
{4}4b,3b,2b,1bw5[8:1],
Cf,3xh[8:1]/4xh[8:1],{8}5/1,{16}1,6,1,7,1,8,
2x-5[8:1],1,2,1,{4}2x,{16}6-1[8:1],5,6,5,{4}6,
{8}2-6-8-4[4:1],6,{4}8,{8}5,{16}5,5,5,5,{8}5,
6>3[8:1]/2<7[8:1],6/2,,,{4}3x-7[8:1]/7x-3[8:1],Cf,
8xh[8:1]/4xh[8:1],6xh[8:1]/5xh[8:1],{8}4/8,{16}8,3,8,2,8,1,
7x-4[8:1],8,7,8,{4}7x,{16}3-8[8:1],4,3,4,{4}3,
{8}7-3-1-5[4:1],3,{4}1,{8}4,{16}4,4,4,4,{8}4,
3<6[8:1]/7>2[8:1],3/7,,,{4}6x-2[8:1]/2x-6[8:1],Cf,
1>4[8:1]/5<8[8:1],1/5,{8}6/2,{16}4,4,4,4,4,4,
3-8[8:1],3,3,3,{4}3,{16}7-4[8:1],7,7,7,{4}7,
{8}6/5,7/4,8/3,2/1,2/8,{16}1,1,1,1,1,1,
{4}1h[4:1],{8}7-4[8:1],7,{4}7/1w5[8:1],1,
8<5[8:1]/4>1[8:1],8/4,{8}3/7,{16}5,5,5,5,5,5,
6-1[8:1],6,6,6,{4}6,{16}2-5[8:1],2,2,2,{4}2,
{8}3/4,2/5,1/6,7/8,7/1,{16}8,8,8,8,8,8,
{2}8h[2:1],1xw5[8:1],
{8}6x/4x,3,2/5,6,7/1,2,3/8,7,
6/4,1,3/4,8,6/5,1,3/4,6b,
7/5,4,6/3,4,3/6,5,6/3,5,
{16}6-1[8:1],4,6,4,{4}6,{16}3-8[8:1],5,{8}3,7,7,
6x/5x,2,3/4,7,5/6,1,3/4,8,
6/5,1,2/4,8,7/5,3,4/2,5b,
4/6,2b-6[8:1],6,2x,7-3[8:1],3b,7,2x,
{16}1,8,1,8,{4}2,{16}7,8,{8}6,{16}4,5,4,5,
{4}3/6<1[8:1],{8}5,4,3>8[8:1],3,4,5,
6<1[8:1],6,5,4,3>8[8:1],3,4,5,
6-1[8:1],6,5,4,3-8[8:1],3,4,5,
{16}6,5,6,5,{4}7b,{16}3,4,{8}2b,{16}5,4,5,4,
{8}5x<8[8:1],5,4,3,2>5[8:1],2,1,8,
7>2[8:1],7,6,5,4<7[8:1],4,3,2,
1-5[8:1],1,1/7-3[8:1],7,7/2-6[8:1],2,2/8-4[8:1],8,
{4}8x/1x,3x/7x,{16}2,1,{32}3x,4,{16}5,7,8,{32}6x,5,{16}4,
{1}1b>1[4:13],
{4},,,,,,,,,,,,7-4-7[8:5],
8/7,{8},1,{4}1,
2-5-2[8:5],1/2,{8},8,{4}8,
7,6/5,2,3/4,
5-1[8:1]/4-8[8:1],4/5,{16}8-4[8:1],1,7,2,{4}8b,
5x/6xh[8:1],5/6h[8:1],5/4h[8:1],5/4h[8:1],
4/3h[8:1],4/3h[8:1],4/5h[8:1],4/5h[8:1],
6h[8:1]/B5,7h[8:1]/B4,3h[8:1]/B5,2h[8:1]/B4,
6h[8:1]/B5,7h[8:1]/B4,3h[8:1]/B5,2h[8:1]/B4,
{8}2/5h[8:1],3,6/4h[8:1],7,1/8h[8:1],2,5/3h[8:1],6,
4/7h[8:1],3,8/2h[8:1],7,3/6h[8:1],2,6/1h[8:1],5,
{16}3,4,2,5,1,6,8,7,{32}1,2,3,4,5,6,7,8,{48}1h,2h,3h,4h,5h,6h,7h,8h,1h,2h,3h,4h,
{4}5x,{48}4x,5x,,,,,,,,,,,6x,3xh[48:23],{4},{16},,,{48},{16}1b,
8,7-5[8:1],6,{8}4-8[16:1],7,4,7-1[8:1],8,7,
4-8[8:1],6,4,7-4[8:1],1,7,{4}1-5[8:1],
{8}8,7,6/5-1[8:1],4,5/3,2,{4}8-6[8:1]/1-6[8:1],
1-3[8:1]/8-3[8:1],8-6[8:1]/1-5[8:1],1-3[8:1]/8-4[8:1],1/8,
{8}5b/4b-8[8:1],6,7/4,{16}6,5,{4}4-8[8:1],3/4,
{8}4b/5b-1[8:1],3,2/5,{16}3,4,{4}5-1[8:1],6/5,
{8}5/4,{16}3,4,{8}2,{16}6,5,{8}7,{16}1,8,{8}2,7/3,
4b-1[8:1],1b,8b,7b,{4}6xh[4:1],{16}8b-4[8:1],1,2,3,
{4}4b/8b,{8}1,2,4/3,{16}6,5,{8}7,1/8,
2/7,4,5/3,6,8/4,{16}3,5,{8}1,8,
7b/5b,3b,4b/2b,8,5/6,{16}4,5,{8}3,7/2,
8/1,{32}1b,8,7,6,{8}5,{32}8b,1,2,3,{8}4,{24}5,6/4,7/3,{4}8b/2b,
{8}3b/4b,5,6/3,{16}7,4,{8}8,2,4/3,6,
2b/4b,6,8/5,{16}3,4,{8}2,{48}5b,E6,B6,B7,{24}E8,{48},,,,,,4b,E4,B3,B2,{24}E2,
{8}8bx,5/7,4/6,5/3,2b,8/7,5/7,1/2,
{4}1/7x<4[8:1],2x<7[8:1],4x,{16}5b/1b,6/2,7/3,8/4,
{1}5/1,
E
