&title=Xevel
&artist=Tatsh
&first=0.12
&des=sin雪梨鸡
&lv_7=狂
&inote_7=(176)
{1},,,
{48}1b/8b,2b/7b,3b/6b,4bpp7[4:4]/5b,,,,,,,,,
{4}3,2,1,1h[2:1],,8h[4:1],2h[32:8],
{48}1b,3,4,5h[32:14],,,,,,,,,,,,,,,,,,,,,8,7v5[4:12],6h[24:5],,,,,,,,,,,,,,,,,,,,,,8,1v3[4:10],2,,,,,,,,,,
{4},,,,,,,,,,,
(185)
{32}1b/8b,2/7,3/6,4,5,6,7,8,1/5,2,3,4,5,6,7,8,
{16}1,5,4,7,2,6,3,8/2,
{8}1b/7b-2[8:1],6,5/7,4,3-7[8:1],2,1/3,8,6v3[8:1],5,6/4,2,
{32}8,1,2,,7,6,5,,3,4,5,,1,8,7,,
2-5[8:1],3,4,,6,,,,
{8}2/7,8,1<6[8:1]/2,
{32}3,4,5,,1,,,,2,,,,
{32}2bw6[8:1],1/3,8/4,7/5,
{8}6,,,
{16}4,5,2,7,1,1,8,8,
{24}2b-5[8:1]/7b,3,4,6-1[8:1],7,8,
{8}1/2b,,
{16}3p6[8:1],3,24,,6,,,,
{24}7-4[8:1]/1b,6,5,3-8[8:1],2,1,
{8}8/7b,,
{16}6q3[8:1],6,75,,2,,,,
{24}8-5[8:1]/2b,7,6,4-1[8:1],3,2,
{8}1/8b,,
{16}7q5[8:1],7,86,,3,,2,,
{16}1/6,2,3,4,
{24}5/8,1,2,3,4,5,
{32}6/2b-6[8:1],3,4,,8b,7,6,,2b,,,,,,,,
{16}1b,2,3,4,
{24}5b-8[8:1]/7,8,1,2,3,4,
{32}5/2,,,,1,,,,7/4,6/5,,,,,,,
{16}8b,7,6,5,
{24}4b-1[8:1]/2,1,8,7,6,5,
{32}4/7,,,,8,,,,2/5,3/4,,,,,,,
{16}8b/7,1,2,3,
{24}4bv7[8:1]/2,1,8,7,6,5,
{32}4/2,,,,8,,,,6/4,,,,2/7,,,,
{32}1b/8b,2b/7b,36,45,,,,,1b/8b,27,36,,,,,,
{16}4b/5b,45,45,,75,,24,,
{48}1/2b,,8,2,7,,6,,,,,,1/3bv5[8:1],,8,3,7,,6,,,,,,
{32}3b,,,,8,7,6,,1,2,3,,,7,,,
{48}2/8b,,3,8,4,,5,,,,,,2/7b-4[8:1],,3,7,4,,5,,,,,,
{32}7b,,,,1,2,3,,8,7,6,,3,,,,
{16}1h/2h,38,74,,8h/1h,27,63,,7h/8h,16,52,,8h/1h,27,63,,
{32}1b/8b,27,36,,2b/7b,,,,1b/8b,2b/7b,36,45,,,,,
{24}2b,4,2,4,3,,7b,5,7,6,7,5,
{8}6b,12,4,18,5,
{16}15,26,37,,4v2[8:4],,
{8}8v6[8:3],,,,,,,
{16}15,26,37,,
{8}3,86,5,13,
{16}8/2,7,6,,2v8[8:2],,4-7[8:1],,,,,,,,
2,4,2,4,2,3,2,3,
2b,4,2,4,3,5,3,5,4,6,4,6,5,7,5,7,
4b/6b,5,3,5,2/4,3,2/4,5,3b/6b,4,5,4,7/5,6,7/5,4,
{16}6b/3b,7,1/2,3,4/6,7,1/8,2,3b/4b,5,8/6,1,2/3,4,7/5,6/8,
{24}1b,7,1,8,2,8,1-5[8:1],7,1,8,2,8,
{32}1b/7-4[8:1],,,,,,7b/2-5[8:1],,,,,,2b,,8b,,
{8}7b-2[8:1],4-1[8:1],1/7,4,6-3[8:1],8-4[8:1],4/6,8,
1-5[8:1],2-4[8:1],1/3,2,
{16}7,6,5,4,8/3,1,2,3,
{32}4/5<8[8:1],,,,2/7,,,,4/5,3,2,1,,,,,
{32}2/1<6[8:1],,,,4/7,,,,2/1,3,4,5,,,,,
3,4h,,,6,5h,,,2,3h,,,5,6h/4h,,,
{32}7b/2h[16:1],,,,3b/6h[16:1],,,,2b/5h[32:1],1,,,7b/8h[32:1],6,,,
{8}2/4v2[8:1],8v6[8:1]/5,4/7,8,
1v3[8:1],5v7[8:1]/2,1/7,5,
4v1[8:1],8v5[8:1]/3,4/6,8,
{32}2bv7[8:1],3,4,,,,,,2/6bv3[8:1],5,4,,,,,,
6b<3[32:5],,,,,,,,6/2,3,4,5,,,,,1b>6[32:5]/5,2/6,,,,,,,1/5,6,7,8,1,,,,
2b,3,4,,6b,7,8,,3b,4,5,,7b,8,1,,
3b,4,5b,6,7b,8,1b,2,
3b/7v5[8:1],4/8b,1/5b,2b/6,
7b,8,1b,2,
{8}7b,3,
{32}1-5[8:1]/2,8,7,,3,4,5,,,,,,4,3,2,,6-2[8:1],7,8,,2,3,4,,,,,,
4h[8:1],,,,7-3[8:1],6,5,,3,2,1,,,,,,4h[8:1],,,,5,6,7,,3,2,1,8,
{8}6/7-3[8:1],6-4[8:1]/8,7/5,6,2-5[8:1],1-6[8:1]/3,2/8,1,3-1[8:1],4-8[8:1]/2,3/5,4,
{16}2b,2b,7b,7b,1b/8b,1b/8b,1b/8b,1b/8b,
{32}2b/7h[1:1],3,4,5,6,,8,1,2,3,4,5,6,,8,1,2,3,4,5,6,,8,1,2,3,4,5,6,,8,1,
2h[1:1],6,5,4,3,,1,8,7,6,5,4,3,,1,8,7,6,5,4,3,,1,8,7,6,5,4,3,,1,8,7,
6/3,4,5,6,7,8,1,2,3,4,5,6,7,8,1,2,3,4,5,6,7,8,1,2,3,4,5,6,7,8,1,
2/6,5,4,3,2,1,8,7,6/3,5,4,3,2,1,8,7,
6/2,5,4,3,2,1,8,7,
{48}6/4,3,2,1,8,7,
{32}6,5,4,3,
{8}2h[8:3],3,4,5h[8:3],6,7,8h[8:3],1,2,3h[8:3],2,1,
{24}8,7,6,5,4,3,2/8,7,6,5,4,3,
{8}2/7q3[8:1],6,5,4q8[8:1],3,
{32}2,,,,1,2,3,,7,6,5,,2bV86[1480#1:4]*V46[1480#1:4],,,,,,,,
{8},,,,
{16}4,5,3,6,
{32}2v5[8:1],3,4,,1,,,,1,,,,8p4[8:1],7,6,,1,,,,2,,,,3p7[8:1],2,1,,4,,,,5,,,,
6q2[8:1],5,4,,2,,,,3,,,,
{16}3,4,6,5,2,3,7,6,
{32}1v4[8:1],2,3,,8,,,,8,,,,7p3[8:1],6,5,,1,,,,2,,,,2v5[8:1],1,8,,5,,,,6,,,,
7-2[8:1],8,1,,3,,,,
{16}4h[16:1],,3,4,6,5,2,3,8,1,
{32}7q3[8:1]/2b,3,4,,6,,,,5,,,,6q2[8:1],5,4,,2,,,,3,,,,3-6[8:1],4,5,,8,,,,7,,,,
7-3[8:1],8,1,,3-7[8:1],,,,4,,,,2b,,,,
{16}1,,3,6,4,5,
{32}2b-6[8:1]/6h[32:1],3,4,,8,,,,5-2[8:1],,,,7,,,,7-4[8:1],,,,8-3[8:1],,,,
1/7,,,,8,,,,
7b-3[8:1],6,5,,2,,,,1>4[8:1],,,,8,,,,
{16}5/1,6,7,8,
{24}1,2,3,
{32}4,5,6,7,
8/2b-6[8:1],3,4,,6,,,,7-2[8:1],,,,8,,,,3/7,4h[32:3],,,,,,,
{16}8,1,8,1,
{32}2b-5[8:1]/7,3,4,,8-4[8:1],,,,7/2v8[8:1],,,,8V24[8:1],,,,2,,,,7,,,,
{16}6,5,6,5,
{32}4b-8[8:1]/7b,8,1,,
{8}3,2-5[8:1],1-6[8:1],2bq3[16:3],1b,2b,,
{16}7b,4,6,2,8,3,6,1,5,4,8,2,6,4,7,1,
6b,6,2,2,5,5,3,3,
{32}8,7,6,5,1,8,7,6,
{16}8,8,2,2,6,3,6,3,5,4,5,4,
{32}3b/6b,4/5,,,,,7b/2b,3/6,,,1b/8b,,1b-4[8:1]/8b,,1b/8b,,
2b/7b,,,,1/5,,,,7,6,5,,3-8[8:1],2,1,,
6b,,,,7/3,,,,5-8[8:1],6,7,,1,2,3,,
{8}5b,2-6[8:1],3,
{32}4/2b,5,6,,
{8}5-2[8:1],7,6/5b,
{16}8,7,6<1[8:1],,3/4,,
{24}6/2,3,4,5,6,7,8b/5bV73[8:1],,,,,,
{32}8b/5b,1,2,,,,,,
{24}1b,2,3,4/7,5,6,
{32}7/5b,4,3,2,1,8,7,6,
5b/2,1,8,7,6/1b,5,4,3,2/6b,1,8,7,6/2b-5[8:1],5,4,3,
2/7b,,,,2/6,,,,8,7,6,,4-1[8:1],3,2,,
7b,,,,8/4,,,,6-1[8:1],7,8,,2,3,4,,
{8}6b,2-6[8:1],3-5[8:1],2b,3b>8[8:1],,
{32}3b/7,6,5,,,,,,
2bV86[8:1]/6bV42[8:1],15,48,37,,,,,,,,,,,,,
7bV14[8:1]/3bV58[8:1],84,51,62,,,,,,,,,,,,,
7b/3b,4,,,2b/6b,5,,,8b/2b,3,,,1b/7b,6,,,
{16}4b/5b,4b/5b,4b/5b,4b/5b,3b/6b,,2b/7b,,
{8}8bv2[8:1]/1b,8,7bp1[8:1],7b,6v8[8:1],6,5bp7[8:1],5b,
4v6[8:1],4,3bp5[8:1],3b,2v4[8:1],2,1b>5[8:1],,
{32}5,6,7,8,1,2,3,4,5/1b,6,7,8,1/4b,2,3,4,
5/1,8,7,6,5,4,3,2,1/5b,8,7,6,5/8b,4,3,2,
1/7b,6,5,,2b,3,4,,8b,7,6,,1b,2,3,,
{16}6b,6b,3b,3b,4b/5b,4b/5b,4b/5b,4b/5b,
{32}6h[8:1]/3b,2,1,8,7,,5,4,6h[8:1]/3,2,1,8,7,,5,4,
7h[8:1]/3,2,1,8,,6,5,4,7h[8:1]/3,2,1,8,,6,5,4,
3h[8:1]/6,7,8,1,2,,4,5,3h[8:1]/6,7,8,1,2,,4,5,
2h[8:1]/6,7,8,1,,3,4,5,2h[8:1]/6,7,8,1,,3,4,5,
6h[8:1]/3,2,1,8,7,,5,4,7h[8:1]/3,2,1,8,,6,5,4,
8h[8:1]/3,2,1,,7,6,5,4,1h[8:1]/3,2,,8,7,6,5,4,
3h[8:1]/6,7,8,1,2,,4,5,2h[8:1]/6,7,8,1,,3,4,5,
1h[8:1]/6,7,8,,2,3,4,5,8h[8:1]/6,7,,1,2,3,4,5,
{8}6/2bw6[8:1],,,,
7bw3[8:1]/8,,7,,
{16}1/8,,1,8,1,8,2,7,3,6,4,5,3,6,2,7,
1,1,8,8,2,2,6,6,4,4,7,7,3,3,5,5,
{24}2,4,2,
{16}6,3,
{24}7,5,7,
{16}1,8,
{24}2,7,2,7,2,7,3,6,2,7,4,5,
3-5[8:1]/6,,,,,,
{8}3b,6b,6V41[8:1],7,7-2[8:1],8,
{24}7/2,3,4,5,6,7,5-1[8:1],6,7,8/4-8[8:1],3,2,
{8}1/5q2[8:1],4,5V31[8:1],3,
{24}8b,7,6,5,4,3,8,7,6,5,4,3,
{16}6,6,2,8,3V17[8:1],3,7,1,
{24}7,6,5,4,3,2,6,5,4,3-8[8:1],2,1,
8V24[8:1]/5,,,3,,,
{32}7,6,5,,,,,,
{32}2b/7b,3,4,,
{24}6-1[8:1],5,6,5,,,
{16}6/1b,,
3,3,6,4,5,5,2,7,1,1,5,3,8,8,2,6,1,7,3,5,2,8,4,6,
{32}8b/2b,3,4,,
{16}7,7,3,5,1,1,6,4,8,8,2,6,35,35,
{32}1b/7b,6,5,,
{16}2,2,6b,4,8,8,3b,6,2,2,7b,4,56,56,
{32}8b/2b,3,4,,
{16}6,6,2b,5,1,1,7b,4,8,8,2b,5,34,34,
{32}7b/1b,6,5,,
{16}3b,3,8b,4,6b,6,2b,5,1b,1,7b,4,6b/5b,65,
{32}2b/8b,3,4,,
{16}7b,7,1b,5,3b,3,6b,4,8b,8,2b,5,3b/4b,34,
{24}7b,1,5,3,8,2,6b,4,7,1,5,3,
{32}6b,3,5,4,7,2,3,6,
{48}1bs5[8:1],2,3,4,5,6,
{32}7,8,1,2,3,,,,,,,,
{48}2b/1b-5[1:4],38,47,56,,,8b/7b-3[8:31],,
E
