&title=猪之歌
&artist=香香
&first=0
&des=祝
&des_5=祝
&lv_5=14
&inote_5=(68){4},{16},,,,,,,,,,2,2,
{8}3/5h[4:1],{16}1,2,{8}3,6/3,6/4h[4:1],{16}8,7,{8}6,3/6,
2/4h[4:1],{16}2,3,{8}5,6/2,7/5h[4:1],{16}7,6,{8}4,3/7,
{16}4/3h[16:3],5,6,5,{8}4/2>6[8:1],{16}8,1,2h[32:3],,,3/7h[8:1],,,6,5,
6/4<2[4:1],3,2/4,3,4/6h[8:1],,,5,{32}4h[32:3],,,5h[32:3],,,{16}8h[4:1],1,2,3,4,
5/6h[16:3],4,3,4,{8}5/7<3[8:1],{16}1,8,7h[32:3],,,6/2h[8:1],,,3,4,
3/5>7[16:3],6,7/5,6,5/3h[8:1],,,4,{4}6b/2b,{8}7,2,
{1}8/1>8[32:21],
{16}8b/3h[4:1],7,6,5,4,3,2/5,1p7[32:7],8q2[32:5],7,{8}6/3,{16},,,,2h[16:1],
4h[16:1],3h[16:1],5h[16:1],{8}4h[8:1],{16}6,3,2/7p7[8:1],3,5,4,{4}7/2<4[4:1],
{16}2b/6h[4:1],,,,,5,4,6,3p7[8:1],2,7p3[8:1],6,{4}3/5h[8:1],
{16}8-4[8:1],7,1-5[8:1],2,{8}8,1,{16}6,7,8,{96}1,2,3,4,5,6,7,8,1,2,3,4,5,6,7,8,{48}1,,,,,,,{16}7b/3h[16:3],
6,5,4,3,2,2/1,2/8,7/2<2[0.8824##0.5515],2/6,2/5,2/4,2/5-1[0.8824##0.2206],,,,2/5,
3,4/8,7,1/6,2,7/3,6,{2}2h[8:3]/7h[8:3],
{16}6b/3h[4:1],7,8,1,2,4,5/3q6[8:1],4,2/6p3[8:1],4,3/5,7,{8}8h[16:1],{16}8-4[16:1],1<1[16:7],
7,2,8,1,,,,,,,,5,6/4,7/3,8/2,{64}1,1,1,1,
1,1,1,1,1,1,1,1,1p1[8:1],1,1,1,1,1,1,1,1>1[16:7],1,1,1,1,1,1,1,{8}1b,{16},,,,1,2,3,4,
{128}8b,7,6,5,,,,,{16}3h[32:1],{128}7b,6,5,4,,,,,{16}2h[32:1],{128}6b/1-5[16:1],5,4,3,,,,,,,,,,,,,2b/7-3[16:1],3,4,5,,,,,,,,,,,,,{8}1b/8-4[16:1],7b/1,8b/6-8[8:1],{16}8-4[8:1],5,
{8}6/4-2[8:1],1,5,1,{96}1/5,2,3,4,5,6,7,8,1,2,3,4,5/1,6,7,8,1,2,3,4,5,6,7,8,{4}1h[8:1]/5h[8:1],
{16}7/2,5,8/3,4,8-2[16:1],2v4[8:1],3,4-6[16:1],{4}8,{8}3h[16:3],{16}6,7,
4/8,{64}8/4h[48:37],7,6,5,,3,2,1,8,7,6,5,,3,2,1,8,7,6,5,,3,2,1,8,7,6,5,{192},,{96}3,2,1,8,7,6,5,,3,2,1,8,7,6,5,,3,2,1,8,7,6,5,,3,2,1,8,7,6,5,,3,2,1,{16}3/8,2,
{64}5/1,4,{96}3,2,1,8,7,6,5,4,3,2,1,,8,7,6,3/5,4,5,6,7,8,1,2,3,4,5,6,7,8,1,2,3,4,5,6,7,8,1,2,3,4,5,6,7,8,1,2,3,4,5,6,7,8,1,2,3,4,5,6,7,8,1,2,3,4,5,6,7,8,1,2,3,4,5,6,7,8,1,2,3,4,5,6,7,8,1,2,3,4,5,6,7,8,
{1}5/1>1[2:9],
{4},,,{48}1b,1b,1b,1b,{1},,,{16},,{64},,{96},{64}8b/1b,
7/2,6/3,5h[64:13]/4h[64:13],,,,,,,,,,,,,,,,,{16}6,3,7,1>7[16:3],2,3,4,{4}1/5h[8:1],
{16}2-6[16:1],6-2[16:1],8-4[16:1],4-8[16:1],,,,,{4}1p4[16:3],1,
{64}7b/3b,6/2,5/1,4h[64:13]/8h[64:13],,,,,,,,,,,,,,,,,{16}6,1,3,5h[16:1],7,2h[32:5],4,{8}6h[32:1],{16}6<1[8:1],8,
2<3[4:1],4,6,3,,2h[16:3],,,,,,4,5/3,6/2,{32}7/1,{64},,,,8,8,
8,8,8,8,8,8,8,8,8p8[16:3],8,8,8,8,8,8,8,8,8,8,8,8>8[32:5],8,8,8,{8}8b,{64},,,,,,,,,,,,,,,,,1,2,3,4,5,6,7,8,1,2,3,4,5,6,7,
{16}4b/8b,{32}4/7,3,{16}6/2,7/4,{32}8<5[16:1],3,6,2,8>3[16:1],1,7,2,{8}8/4-8[16:1],8/6,8/4,{16}7h[8:1],1,
2h[8:1],6,5h[8:1],3,{8}1p3[8:1],3p5[8:1],1/5p7[8:1],7p1[8:1],{4}6h[8:1],
{32}6,6,8,8,4,4,2,2,7-5[16:1],7,5v4[8:1],5,8,8,4-2[16:1],4,{64}7/1h[4:1],,,,,,,,,,,,,,,,,8,7,6,5,4,3,2,{16}8/1,7/1,
{48}3,7,3,7,3,7,3,7,3,7,3,7,3,7,3,7,3,7,3,7,3,7,3,7,{64}2-6[16:1],6,2,6,2,6,2,6,2,6,2,6,2,6,2,6,{8}2b,{16}5/3,6/2,
{48}1,7,1,7,1,7,1,7,1,{192}8,,,8,,,{64}8,8,8,8,8,8,8,8,8,8,8,8,8,8,8,8,8,8,8-5[1.7647##0.8823],8,8,8,8,8,8,8,8-3[1.3235##0.8823],8,8,8,8,8,8,8,8<4[4:1],8,8,8,8>4[0.6618##0.8823],8,8,8,8p4[0.4412##0.8823],8,8,8,8q4[0.2206##0.8823],8,8-4[0.1103##0.8823],8,
{8}8b,{16},,,,8,6,{8}2h[8:1]/4<3[8:1],1h[4:1],{16}4,,,7h[16:3],
4>1[16:1],3,{8}2h[16:3],4-8[8:1],{16}8<4[8:1],1,{8}2/4,1h[8:1],{64},8,7,6,5,4,3,2,{8}8-4[8:1]/1-5[8:1],
8h[8:1]/1h[8:1],{16},,,,1,3,{8}7h[8:1]/5>6[8:1],8h[4:1],{16}5,,,2h[16:3],
7,6,5-1[16:1],1>5[8:1],7h[16:1],5p3[8:3],8/5,8,,8h[8:3],,,,,,,{1}7b/3b,
E
