&title=The Metaverse -First story of the SeelischTact-
&artist=光吉猛修 vs.目黒将司
&first=-0.02
&lv_5=14.9
&des_5=MISSION -X-
&inote_5=
(190){4},{16}4h[32:1],5h[32:1],4h[32:1],5h[32:1],4,6,3,7,{4}2bh[4:7]/1bxqq6[16:21],
{1},{4},,,6h[4:1],
{12}5,7,4,6,3,5,{4}2h[4:1],4-8[8:1],
4/3,2b-6b[8:1],2b/6b,{16}7,8,6,1,
5,2,{8}4pp8[4:1],{4}4x/3x,B2f,1h[4:1],
{8}8h[16:1],8h[16:1],7h[16:1]/5h[16:1],7h[16:1]/5h[16:1],6h[16:1],6h[16:1],{4}5h[8:1]/3h[8:1],
{8}5/4>1[8:1],6,7<4[8:1],6,7/8,1,3qq8[2:1],5/4,
{4},{8}5,5,6,6,{4}7/8,
{8}1,2,{4}4h[8:1]/3h[4:1],{8}4h[16:1],4h[16:1],{16}2,3,4,5,
3,4,5,6,{4}8qq5[2:1],{8},{16}1,2,{4}3h[8:5],
,1,{16}4,3,4,3h[16:3],5,6,7,8,
{4}2b/1h[4:1],{16}E3,E4,E5,E6,{4}E7,{24}5x,6x,7x,8xh[8:1],{16},{48},{16}2,
1,2,1,3,8,3,8,{8}4h[16:1],4h[16:1],5h[16:1]/7h[16:1],5h[16:1]/7h[16:1],
{4}8/6h[8:1],{16}7,5,{8}6,{16}2,4,{8}3,{16}7,4,8,3,
{1}2h[8:1]/1qq5[8:3],
{2}4/5p8[8:1],{12}7,5,6,{48}4,{24},{48}5,{24},{16}4,7,
3,4,3,8,4,5,4,6,{4}2>5[8:1],{8}2/1,1,
{4}8<5[8:1],{8}8/1,2,{4}4/3,{16}5v6-8b[8:3]*v4-2b[8:3],4,5,4,
{1}5,
{4},A5,{8}6/4,6/4,{4}4h[4:1]/6p1[8:1],
,{8}3/5,2,{4}3/4h[8:1],5b/1>6[8:3],
{8}6,6,7,7,8bx,1bx,{4}A7,
{8}6/8,6/8,{4}6h[4:1]/8q5[8:1],,{8}4/3h[8:3],2,
1-5b[8:1],8,{4}1b/7,{8}3/4h[8:1],5,6/4h[8:1],7,
5h[8:1]/8bxq4b[8:1],1bx,{4}8b/A2f,{8}5bxh[16:1],5bxh[16:1],{4}4/6v1[8:1],
{16}2,3,{8}4h[8:1],8-4[8:1],7,8/2-5[8:1],3,{4}2/1h[4:1],
{8}4,3,2/1bp4b[8:1],8,7bx/1b,6bx,5-1[8:1],4/6,
{4},{8}2b-6b[8:1],1b/3b,{4},{8}6xh[16:1]/8xh[16:1],7xh[16:1]/5xh[16:1],
6h[16:1]/4h[16:1],5p8[8:1],,5/3,2,1b-5b[8:1],8,7/1b,
{4}6h[8:1],{8}3-8b[8:1]/7-4[8:1],4/8,{4},{8}1h[16:1],1h[16:1],
2h[16:1]/6h[16:1],3h[16:1]/7h[16:1],{16}4,8,4,8,2,6,2,6,3,4,{8}2bh[8:1],
{16}6,5,{8}7bh[8:1],{16}3,4,{8}1bh[8:1],{16}6,5,{8}8bh[8:1],2,3/4,
7,6/5,{16}3,4,2,5,1-5[8:1],6,8,7,{4}1,
7h[4:1]/6h[8:1],{16}5,4,3,2,1/8,7,6,5,2,4,2,4,
{4}1h[2:1]/3h[8:1],{8}7,{24}7b,6,5,{8}4,2,1,{24}2b/8b,3/7,4/6,
{4}5h[8:1],{16}6,5,6,4,7,5,7,3,(180){4}4bxh[8:5]/8bh[8:5],
,,,{8}6/5,7,
4/3,2,{16}6,5,7,4,8,3,{8}1qq5[4:1],{4}1/2,
{8}4-2b[16:1],4,,5,{4}6h[8:1]/4h[8:1],{16}6-8[16:1],5,7,5,
{8}6,{16}2-5[8:1],4,2,4,{8}2,{24}6b,7,8,1h[8:1],{16},,,{48},{8}3/2,
{16}4,3,4,2,5,4,5,2,7-4[8:1],8,{8}6,7/1,2,
3h[16:1]/1h[16:1],2h[16:1]/4h[16:1],{16}3,4,2,5,{4}1-4b[8:1],{8}1bx/6x,7,
8,1/2,3,4pp7[8:3],5/6,4/3,,8,
{16}8,1,{8}2/6,{4}4b-8b[8:1]/3b-8b[8:1],4bx/3bx,{16}2,1,{8}2,
8/7,{16}6,5,{8}6,1/2,{16}3,4,{8}3,{16}7,5,6,4,
5,3,1,2,7,5,{8}6h[8:1],{4}5b-2[8:1],5bx/7x,
{8}1/6,8/7h[8:1],{16}6,5,{8}4,3/8,5/6,{16}3b/1b,4bx/8bx,{8}5bx/7bx,
{16}6,5,6,5,{4}7bxp4b[4:1],{2}7bx/1bx,
{16}6,5,7,7,3,4,2,2,{24}8-2[16:1],7,6,5,{16},{48},{8}8,4,
6-4[16:1],8-3[16:1],6,8,7,4/6h[8:1],{16}3-6[8:1],4,2,4,
{4}3,E8,{24}7/1-7b[16:1],2,3,4h[8:1],{16},{48},{8}1b,5,
3b-5b[16:1],1-6b[16:1],3,1b,2b,5/3qq8b[8:3],,3/4,
5,6,{4}7-4b[8:1],7b/8b,{8}1/3,{16}7,5,
{8}6,8/7,{16}2,4,{8}3,{24}7b/A3f,6b/A2,5b/A1,4bh[8:1]/A8,{16},{48},{8}1x,1x,
,1/2V41s5-8-6[8:5],{1},{8}7,
7,,8/7V58-4-2b[2:1],{4},,,E2,
{8}7/8,6/1,
,1/2-6-3-5-8[8:3],{4},,,E7,
{8}6/5,E2f,,4/3,{4}E8f,
{8}7/8,7/8,,1/2,,8/2-5V38[8:3],7,2/6h[8:3],
{4},,{8}2b/1b,2b/1b,,8b/7b,
,1b/7b-4-6b[4:1],2b,7b/3bh[8:3],{4},E1,
{16}1,8,1,8,1,8,2,7,1,8,2,7,1h[32:1],8h[32:1],3h[32:1],6h[32:1],
{32}1,2,3,4,5,6,7,8,{4}1bw5b[8:1],(190){2}Cf/1b>1b[4:5]*<1b[4:5],
{1},{2},{4}C,
{12}5,5,6h[12:1],
4,4,5h[12:1],3,4,3,5,2,4h[12:1],3,3,5h[12:1],
4,4,6h[12:1],5,5,7,4,4,6,4,3,2,
{6}1/6h[6:1],{12}1,7/1,6,5,{6}4/1h[6:1],{12}7,7q5[4:1],{6},{4}7/4,
3,1/5,{12}3,4,2,
{4}3q7>1[4:1],{12}3/5,,4,{4}4,{12}6,5,7,
{4}6p2<8b[4:1],{12}6/4,,3,{4}3,{24}6,5,{12}6,4,
7,1,8,{24}3,4,{12}3,5,2,6,1,7b/1,7,7,
2b/8,2,2,{24}8b-4b[12:1],1,2,3,4,5,{4}6/8b,{12}7,8,7,
1,6,1,4/2h[6:1],,5,5h[6:1],3,,4,5,4,
6,3,6,4/7h[6:1],,5,5h[6:1],6,,7,6,5,
4/3,2,1,8/6,5,4,3/1,8,7,6/8x,7,6,
5/7x,6,5,4bh[8:1]/6bxh[8:1],{6},{4}4bh[8:1]/2bh[8:1],{12}7/3,6/2,5/1,
{4}4h[6:1]/8-4[12:1],{12}8,5,5,3,7,7,5/8,7/4,6/3,
{4}2>5b[12:1]/5<8b[12:1],5-1[12:1],5b/8b,{12}3,3,4/5,
7,7,6/4,2,2,1h[12:1]/7-4[12:1],{4},{12}3b,{24}3,4x,{12}3,
7,{24}7,6,{12}7,{24}2-6-3-5b[16:3],4,2,4,{12}2,{4},{12}8,8,7,
{4}7<4[12:1],{24}7/8,1,2,3,{16},{48},{12}1,1,2,2>5[12:1],{16},,{24},2/1,
8,7,6,{16},{48},{12}8/4x,7/3,6/2,{4}1h[8:1]/5<8[12:1],{24}2b,3,4,5x,{16},{48},{8}5bx/1bx,
5b-1b[16:1]/1b-6b[16:1],,1b/5b,{16},,{24}8b,7/1,6/2,{4}5h[8:1]/3h[8:1],
{12}6,5,7,2,1,3,{24}1b/4h[6:1],8,7,6,{16},{48},{12}3,4,2,
7,8,6,{24}8b/5h[6:1],1,2,3,{16},{48},{12}4,3,1,5,6,8,
{24}7h[6:1]/1b-5b[12:1],2,3,4,{16},{48},{4}1b/5b,{8},3bv8b[16:1]/7b-4b[16:1],,3b/7b,
{4},{8}6bx/4bx,{24}5,4,6,{8}5h[8:1],{16}6,5,7,4,{8}8,
1bx/2bx,{24}8,1,7,{8}8h[8:1],{16}6,1,5,2,{8}4,{24}3bqq8b[4:1],5,4,5,{16},{48},{12}7/3,
6,5,4h[12:1],{16},,{24},{8}7b/5b,5b/7b-4b[8:1],,7b/1b,
,B1/B2/A2/D2/A1/E2f,{12}7b,5,6,4,6,5,{24}4b/7bh[4:1],3,2,1,{16},{48},{12}2b,
4,3,5,3,4,{24}6b/2bh[4:1],7,8,1,{16},{48},{16}1,2,1,2,
8,3,8,3,{32}7b,6,5,4,8,1,2,3,{8}4bx/8bx,5b/1b-5b[16:1],,1b/3b,
,8b/4b,{4}2b/6bw2b[2:1],{1},{16},,{24}8bw4b[8:5],
7/1,6/2,5/3,A4f,{1},{4},{16},,{24},{16}6,
5,6,5,7,4,7,4,8/3,7,6,5,
4/8,3,2,1,3/8,4,2,5,2,1,3,8,2,1,4,5,
8,7,4,5,{24}2x,3,4,1x,2,3,{16}5,5,7,7,5,4,3,2,
4/1,3,2,1,{24}7x,6,5,8x,7,6,{16}4,4,3,3,{24}1,8,7,6,5,4,
3/8,7,6,5/4,3,2,{16}1h[32:1],5h[32:1],1h[32:1],5h[32:1],2h[32:1],6h[32:1],2h[32:1],6h[32:1],{24}8/4x,1,2,3,4,5,
6x/1,8,7,6,5,4,1b,2,1,2,1,2,8b,3,8,3,8,3,4bx,5,6,7,8,1,
5bx/2,6,7,1/8,2,3,6b/4bxh[4:1],B6f,Cf,B2f,{4},{16},{48},{12}6,5,7,
3,4,2,7,{24},6b/8bh[4:1],5,4,{4}3h[8:1],{8}2,{24}2b/1bh[4:1],3,4,
{4}5h[8:1],{8}8bh/6bh,7b-4b[16:1]/5b-1b[16:1],{4},{8},{16}4,5,
3,6,2,7,1,8,{24}2,3,4,7,6,5,1,2,3,8,7,6,1b,8,7,
6,5/1,4/8,3/7,2/6,1/5,{16}4bxh[8:1]/8bxh[8:1],{8},{16}1,8,2,7,3,{12}6xh[12:1]/4xh[12:1],,6xh[12:1]/4xh[12:1],
,7b/8bh[6:1],{16},{48},{24}7,6,5,4/2,{16},{48},{12}5/3,5/3,3/5,{24}2b,3,4,5/8,{16},{64},{192},{32}5/6,
4,3,2,1,8,7,6,{8}5bx-1b[16:1],C,{4},4bh[32:1]/2bh[64:1],
6bh[64:1]/8bh[32:1],{12}3h[24:1]/5h[24:1],5h[24:1]/3h[24:1],3h[24:1]/5h[24:1],{16}4h[32:1],4h[32:1],4h[32:1],4h[32:1],{32}5,6x,3,2x,5,6x,3,2x,
6,7x,2,1x,6,7x,2,1x,{24}6,6bx,{12}5,7,{24}3,3bx,{12}4,2,{24}6,6bx,{12}5,7,
{24}1,2/8,3/7,6bpp4b[12:7]/4b-6-3-7-2-8[12:7],{16},{48},(175){4},,,,{48}1x/8x,
2bh/7bh,3b/6b,5bw1b[4:7]/4bw8b[4:7],{3}D5f,
