&title=Yutu
&artist=Zris
&first=0.02
&des=Jason Willing
&lv_6=14
&inote_6=(179){1},
{1},
{2}8z4[4:1],3b>6[4:7],
{1},
{2},3>6[4:5],
{1},
{8}4,,4,,6-4[8:1]/4,,6,2-6[8:1],
{8},2,8-2[8:1],,8/3-5[8:1],,3,7-3[8:1],
{8},7,1,1,2/4,,2/4,,
{16}3/5,,,,3/5,,4,,4/6,,6,5,6,,3,4,
{16}3,,2,1,3,8,4,7,5>7[4:6],,,,,,,,
{1}B3/E3,
{4}B6/E7,,5>7[1:1],,
{1}E3/B3,
{16},,6b,,5/7,,,,3,4,3,4,3,,2h[4:1]/5,,
{16},,1,,8/3,,,,6,5,6,5,6,,7h[4:1]/4,,
{16},,8,,6/1,,,,2,3,2,3,2,,4h[4:1]/1,,
{8},3,5/2,,6/5,7/6,8/7,1s5[4:1]/8,
{16},,,,,,,,6,5,6,5,6,,7h[4:1]/4,,
{16},,8,7,1/6,,,,3,4,3,4,3,,2h[4:1]/5,,
{16},,1,2,3/8,,,,7,6,7,6,7,,5h[4:1]/8,,
{16},,6,,7/4,,8/3,,2,1,2,1,2,3,2,3,
{16}4,3,4,3,4,5,4,5,4>1[8:1],,,,6,,7<4[8:1],,
{8},8,1,2<7[8:1],,3,4,5>2[8:1],
{16},,6,,7,,8,,1/8,,3,4,2,,6,5,
{16}7-5[8:1],,8-2[8:1],,7,,8,,,,7-3[8:1]/3-7[8:1],,,,3/7,,
{16},,2,1,2,,8/3,,6/5,,7,8,7,,6-8[8:1]/1-5[8:1],,
{16},,6/1,,,,7/4,,,,
{32}2v5[8:1]/1-5[8:1],3,4,5,,,,,2/1,,,,
{8},7-5[8:1]/4-8[8:1],8,4/7,,2-4[8:1]/5-1[8:1],1,5/2,
{8},8-6[8:1]/5-1[8:1],1,8/5,,5/2,3/6,4/7,
{16}E7,B6,B5,E5,E3,B2,B1,E1,5<8[8:1],,,,3,,2>5[8:1],,
{8},1,8,7>2[8:1],,6,5,4<7[8:1],
{16},,3,,2,,1,,8/1,,6,5,7,,3,4,
{16}2-4[8:1],,1-5[8:1],,2,,1,,,,2-6[8:1]/6-2[8:1],,,,6/2,,
{16},,7,8,7,,1/6,,3/4,,2,1,2,,3-8[8:1]/8-4[8:1],,
{16},,3/8,,,,2/5,,,,
{32}7v4[8:1]/8-4[8:1],6,5,4,,,,,7/8,,,,
{8},2-4[8:1]/5-1[8:1],1,5/2,,7-5[8:1]/4-8[8:1],8,4/7,
{8},1-3[8:1]/4-8[8:1],8,1/4,,4/7,6/3,5/2,
{16}1,2,3,4,6,7,8,1,5b<4[1:4],,,,,,,,
{2},E7,
{2},E1,
{2},E3,
{2},8z4[1:1],
{4},,4>5[4:9],,
{2},E5/B4,
{2},E1/B8,
{2},5h[4:7]/4-8[2:1],
{4},,1h[4:3],,
{4},,3qq6[4:6]/5,5,
{4}5,5,5,5,
{4}5,5,7pp3[4:6]/5,5,
{4}5,5,5,5,
{8}5,,5,,
{8}4,4,5,5,
{16}3,,3,4,2,,6,5,7,,1,1,2,2,3,3,
{16}4,4,5,5,6,6,7,7,8b<1[2:1]*>7[2:1],,,,,,,,
{16},,,,,,,,7/1,,2/4,,6,5,7,8,
{32}6,,,,1,2,3,4,5,6,7,8,1,2,3,4,
{16}5/6,,7/8,,1/6,,3,4,
{16}2h[8:1],,,3h[8:1]/1h[8:1],,,6,5,7-4[8:1],,4V61[4:1],,7,,3,,
{16},,2,,8,3,7,4,6,5,6,7,6,5,6,7,
{16}6h[8:1],,,7h[8:1]/8h[8:1],,,1/6,,3h[8:1],,,1h[8:1]/2h[8:1],,,8-4[8:1]/3,,
{16},,8/3-8[8:1],,2,,3/5,,6,,7,8,7,,1/6,,
{16}3/4,,2/5,,1,8,1,8,1,,6,5,6,,7,,
{16}3/8,,2,1,2,,8,,3/7h[8:1],,
{24}1,2/6,3/5,4,,,1/7-3[8:1],,,
{8},7/3,2,1pp5[8:3],,6-8[8:1]/1,7,6,
{16},,7,,6/1,,,,6,5,6,5,6,,1,8,
{16}1,2,3,4,2,3,4,5,3,4,5,6,8,,1/7,,
{16},,2/5,,1,6,2,5,3,4,3,2,3,4,3,2,
{16}3h[8:1],,,2h[8:1]/1h[8:1],,,7/4,,6h[8:1],,,8h[8:1]/7h[8:1],,,2h[8:3]/5,,
{24},,,,,,8,3/7,4/6,5,,,
{16}2/8,,3,4,2,,1/2,,
{16}3/8,,6,5,7,,1,8,1,8,1,,3,4,2,,
{16}1/5,,2/6,7/3,8/4,1/5,2/6,,B8,,B1,,B7,,B2,,
{16}B6/B5/E6,,E3,B3,B4,,E8/B7/B8,,,,E7,B6,B5,,B2/B3/E3,,
{32},,,,E7/B7,,,,E4,,,,E6,,,,1,,4,,3,,8,,5,,6,,1b,,,,
{32},,,,7/8,1/6,2/5,3/4,,,,,2/6,,,,,,,,2/1,8/3,7/4,6/5,,,,,7/3,,,,
{32},,,,1/8,2/7,3/6,4/5,,,,,2bV41[8:9]/7bV58[8:9],,,,,,,,,,,,,,,,,,,,
{1},
{4}1/8,2/7,6-4[8:1]/3-7[8:1],,
{4}8pp4[2:1],,5,6,
{4}7-5[8:1]*-1[8:1],,3-5[8:1]/6-2[8:1],,
{4}1qq5[2:1],,4,3,
{4}2-4[8:1]*-6[8:1],,
{16}7/8,,6,5,7,,8-3[8:1]/4,,
{16},,2v5[8:1]/8v5[8:1],,,,8/2,,,,7,8,7,,1/6,,
{8},2/5,3,8qq4[8:3]/4,,3-8[8:1]/8,2,3,
{8},2/5,3/6,4/7,8h[1:2]/5<4[4:6],,,,
{1},
{16},,,,,,,,5,8,5,8,5,7,5,7,
{16}5,6,5,6,5,4,5,4,5,3,5,3,5,2,5,2,
{24}4,3,2,8,7,6,3,2-6[32:3],1,7,6,5,
{4}2b<4[4:9]*qq3[4:9]`Cf,,,,,,,,,,
