&title=Fairy stage
&artist=K2 SOUND
&first=0.465
&des=Tail_R
&lv_5=13+
&inote_5=(128)
{4}8/2q5[2:1],,E8,E7,
{8}6<1[2:1]/3,,,,B4,B3,B2,,
{4}1V35[2:1]/7,,B6,B7,
{8}8<1[2:1]/1,,,E3,,E7,E8,,
{4}1/7p4[2:1],,E4,E3,
{8}4>8[2:1]/6,,,,B7,B6,B5,,
{4}8qq4[2:1]/2,,B3,B2,
{8}1>8[2:1],8x,,E7,,E3,,,
{16}2h[8:3]/8b,,7,7,,6,6,,3,5,3,,6q8[4:1],,1,,
{16}6/1,,2x,2,,3,3,,1q5[8:1],8,7,,1<5[8:3],,,,
{16}1,,4,4,,3,3,,6,7,8-4[8:1],,1/2,,8,,
{16}3h[8:3],,5,5,,6,6,,8w4[8:1],1,2,,8,,,,
{16}7h[8:3]/1,,2,2,,3,3,,6,4,6,,3p1[4:1],,8,,
{16}3/8,,7,7,,6,6,,8p4[8:1],1,2,,8>4[8:3],,,,
{16}8,,5,5,,6,6,,3,2,1-5[8:1],,8/7,,1,,
{16}7xqq4[2:1],,7b,,,,3b,,,,2b,,,,6x,,
{4}6pp1[2:3],2,2,2,
{4}3,3,4,4,
{4}4qq1[2:3],8,8,8,
{8}7x,B8,,B7,,B6,,3x,
{4}3qq8[2:3],7,7,7,
{4}6,6,5,5,
{4}5pp8[2:3],1,1,1,
{4}2,2,3,{8}3,4x,
{8}4-2[8:1],6,4,7,8-6[8:1],,8/2,3,
{8}4-1[8:1],3,8<5[8:1],7,2v4[8:1],3,7,E6,
{8}6x<1[8:1],5,4,3,2>5[8:1],1,8,7,
{16}6/4,,3/7,,8/2h[8:3],,7,7,,6,6,,5-1[8:1],,E3,,
{8}5<7[8:1],3,5,2,1>4[8:1],,1/7,6,
{8}5<8[8:1],6,1-4[8:1],2,7v5[8:1],6,2,E4,
{8}3x>8[8:1],4,5,6,7<4[8:1],8,1,2,
{16}3qq8[4:1],,,,3/5x,,,,5h[4:1],,,,{32}4,3,2,1,8,7,6,5,
{16}4/8b,,7,7h[8:1],,6,6h[8:1],,4x,5,6,,1-5[8:1]/7,,2,,
{16}8/1,,7,7h[8:1],,3,3h[8:1],,8-5[8:1],2,1,,8pp5[4:1],,,,
{16}8,,3x,3,,4,4h[8:1],,8x,1,2p5[8:1],,1x/3x,,2,,
{16}3h[8:1],,6,6h[8:1],,7,7h[8:1],,3xV17[8:1],4,5,,3,,,,
{16}3/8h[8:1],,2,2h[8:1],,1,1h[8:1],,5x,4,3,,8v5[8:1]/2,,7,,
{16}1/8,,2,2h[8:1],,6,6h[8:1],,2v5[8:1],8,1,,2pp5[4:1],,,,
{16}2,,7,7,,6,6h[8:1],,1x,8,7v4[8:1],,8x/6x,,7x/2b,,
{16}3b>8[8:1],,,3b,,,5b,6,7,8,1,2,{32}3x,4,5,6,7,8,1,2,
{16}3b-8[8:1]/5,,2,,3/6v1[8:1],,5,,6/4-8[8:1],,3,,4/7,7x,,6,
{16}2/5-1[8:1],3,4,,5x/2,,2x-5[8:1],3,4,,2x/6x-1[8:1],,7,,6/4,,
{16}3>8[8:1],,8,,7,,6,,5<8[8:1],,3,,2,2,,1,
{8}1bpp4[2:1]/7xqq4[2:1],,,,,,,6x,
{16}6-1[8:1]/4,,7,,6/3v8[8:1],,4,,3/5-1[8:1],,6,,5/2,2x,,3,
{16}7/4-8[8:1],6,5,,4x/7,,7xv4[8:1],6,5,,7x/3xv8[8:1],,2,,3/5,,
{16}6<1[8:1],,1,,2,,3,,4>1[8:1],,6,,7,7,,8,
{8}8bqq5[2:1]/2xpp5[2:1],,,,,,,,
{16}2bv5[8:1]/8,,3x,3x,2x/7-3[8:1],,6,,7/4v1[8:1],,5,,4/6,6x,,5x,
{16}8xv5[8:1]/4x,1,2,3,4/8x,,8x<5[8:1],1,2,3,4>1[8:1]/8x,,3,,4/6,,
{16}7h[8:1],,1,2,3h[8:1],,7,6,5h[8:1],,3,4,3,5,3,6,
{4}3bqq8[2:1]/7xqq4[2:1],,,{8},6x,
{16}7v4[8:1]/1,,6x,6x,7x/2-6[8:1],,3,,2/5v8[8:1],,4,,5/3x,3x,,4x,
{16}1xv4[8:1]/5x,8,7,6,5/1x,,1x>4[8:1],8,7,6,5<8[8:1]/1x,,6,,5/3,,
{16}2h[8:1],,8,7,6h[8:1],,2,3,4h[8:1],,6,5,6,4,6,3,
{4}6bpp1[2:1]/2xpp5[2:1],,,,
{16}1>4[8:1]/8x,,8,,7,,6,,5<8[8:1]/4x,,3,,2,2,,1,
{32}Chf[2:1],,,,,,,,,,,,,,,,1,2,3,4,5,6,7,8,1,2,3,4,5,6,7,8,
{16}1/5b,,2,2h[8:1],,3,3h[16:1],,8x-4[8:1]/4x,1/5,2-6[8:1]/6,,8,,2,,
{16}7xh[8:3],,5,5,,4,4,,3-8[8:1],4,2,5,3<8[8:3],,,,
{16}3,,1,1,,2,2,,3,8,3,,4p8[8:1],,3,,
{16}4/6,,7,7h[8:1],,1,1h[8:1],,7-4[8:1],2,6,1,7,,,,
{16}2/8,,7,7h[8:1],,6,6h[16:1],,1x-5[8:1]/5x,8/4,7-3[8:1]/3,,1,,7,,
{16}2xh[8:3],,4,4,,5,5,,6-1[8:1],5,7,4,6>1[8:3],,,,
{16}6,,8,8,,7,7,,6v1[8:1],2,7,,6/4,,3,,
{16}4,8,4,7,4,6,4,5,{32}4x,3,2,1,8,7,6,5,4x/8x,3x/7x,2x/6x,1x/5x,8x,7x,6x,5x,
{1}4x>5[1:2]/Cxf,
{16},,E6,,E7,,E8,,E1,,E2,,E3,,E4,,
{8}4x>5[1:2],,,C,,,,,
{16},,B5,,B6,,B7,,B8,,B1,,B2,,B3,,
{8}4x>5[1:2],,,C,,,,,
{16},,E6,,E7,,E8,,E1,,E2,,E3,,E4,,
{8}4-8[2:1],,,C,,,,,
{16}C,,B7,B6,,B2,B3,,E4,E6,E1,,C,,,,
&inote_6=
