&title=すきなことだけでいいです
&artist=ピノキオピー
&first=-0.02
&des=Rayton
&lv_5=13+
&inote_5=(140)
{4},,Ch[2:7],,,,,,,,,,,,,,,,
{4}1,1,1,1,8,8,8,8,
{8}1,8,1,8,2,7,2,7,
{16}1x,1x,8x,8x,2x,2x,7x,7x,
{16}1x<6[8:1],2x,3x,4x,5x,,,,
{16}3x/7x,,3x/7x,,6,2,5,3,7,4,6,3,5,2,4,3,E5,B5,B6,E7,E2,B2,B3,E4,8x,2,8,2,7,1,7,1,
{16}8h[8:1],,2,,
{16}3,7,4,6,2,5,3,6,4,7,5,6,E5,B4,B3,E3,E8,B7,B6,E6,1x,1x,1x,1x,7x,,7x,,
{8}2xh[4:1],,7,6-4[8:1],,63,2-8[8:1],,62,,5,1pp1[4:1]*qq1[4:1],,,,,
{8}6xh[4:1],,3,2-8[8:1],,27,6-4[8:1],,26,,1,5pp5[4:1]*qq5[4:1],,,,,
{8}3xh[4:1],,8,8-6[8:1],,8/4-2[8:1],,4,7h[4:1],,3pp3[4:1]*qq3[4:1],3x,,,,,
{8}8xh[4:1],,4,4-2[8:1],,4/5,6,7,C/8xh[8:1],,3xh[8:1]/C,,5xh[8:1]/C,,C/2xh[8:1],,
{8}7qq7[4:1]*qq7[4:1],7,,1,2,3h[4:1],,,2-4-6[4:1],2,,6,7,8h[4:1],,,
{8}2qq5[8:3],,,6,,,6p5[4:1],,1>4[8:1],,,6xv1[8:1],,5,4,3,
{8}2pp2[4:1]*pp2[4:1],2,,8,7,6h[4:1],,,7-5-3[4:1],7,,3,2,1h[4:1],,,
{4}8-5[8:1]/2-5[8:1],82,4>1[8:1]/6<1[8:1],64,
{8}5x/7x,6x/4x,5x/3x,2x/4x,Ch[4:1]f,,B3/B2/B6/B7,,
{16}3x,5,3,5,4,6,4,6,5xpp5[8:1]*qq5[8:1],,,,,,,,
{16}2x,8,2h[8:1],,7,1,7h[8:1],,8xpp8[8:1]*qq8[8:1],,,,,,,,
{16}6x,4,6,4,5,3,5,3,4xqq4[8:1]*pp4[8:1],,,,,,,,
{16}2x,1,2h[8:1],,7,8,7h[8:1],,1xqq1[8:1]*pp2[8:1]b,,,,,,,,
{16}4x,6,4,6,3,5x,3x,5x,2xxpp2[8:1]*qq2[8:1],,,,,,,,
{16}6x,4,6,4,5,3,5,3,5xqq5[8:1],,5xpp5[8:1],,,,,,
{8}2xh[8:1],B3/B4,7xh[8:1],B5/B6,4qq4[8:1]*pp4[8:1],,,,
{16}2x,6,2,6,3,5,4>1[8:1],,7,6,5,4xh[16:3],,,Cf,,
{16}7,5,6,4,5,3,4,2,4pp4[8:1]*qq4[8:1],,,,,,,,
{16}7x,1,8h[8:1],,2,8,1h[8:1],,8qq8[8:1]*pp8[8:1],,,,,,,,
{16}2x,4,3,5,4,6,5,7,5qq5[8:1]*pp5[8:1],,,,,,,,
{16}2x,8,1h[8:1],,7,1,8h[8:1],,1pp1[8:1]*qq1[8:1],,,,,,,,
{16}6x,4,7,3,8,2,1-5[8:1],,5xpp5[8:1]*qq5[8:1],,,,,,,,
{16}2x,8,3,7,4,6,3,5,4-1[8:1]*-7[8:1],,,,4x,,,,
{16}8-4[8:1],,7,,2>5[8:1],,1,,6<1[8:1],,6,,4h[8:1],,,,
{8}48,48,37,37,
{16}2,6,2,6,
{32}2,3,4,5,6,7,8,1,2xb/5xb>2[8:1]*<8[8:1],,,,,,,,5xbw1[1:3]b,,,,,,,,
{1},,,
{4},,1/6xh[4:1],2,3xh[4:1]/8,7,
{4}6<1[4:1],1>4[4:1],4<7[4:1],7>2[4:1],2>8[2:1],,Ch[4:1],,
{8}1p1[4:1],1,7x,6x,
{4}5x<8[4:1],8>3[4:1],3<6[4:1],6<1[4:1],
{8}2h[8:1],,3h[8:1],,48,48,37,37,26,26,78,78,12,12,57,57,24,24,36,36,
{16}4,7,4,7,4,7,4,7,2,5,2,5,2,5,2,5,
{24}2x,3x,4x,8x,7x,6x,1x,2x,3x,7x,6x,5x,
{32}B1,B2,B3,B4,B5,B6,B7,B8,A1,A2,A3,A4,A5,A6,A7,A8,
{1}A1f/5xpp5[2:1]b*qq5[2:1]b,3qq3pp3[2:1],8qq8[2:1]b*pp8[2:1]b,2pp2qq2[2:1],
{4}5xpp5[4:1]b,5xqq5[4:1],B7/B6,B3/B4,4xqq4[4:1]b,4xpp4[4:1],B2/B3,B6/B5,
{8}3-7[8:1],3,5pp5[4:1]*qq5[4:1],5x,,,,1x,8z4[4:1],,,,
{16}2x,,3x,,6,4,6,,
{16}2,5,3,6,4,7,3,5,6pp5[8:1]/4qq5[8:1],,,,46,,,,
{16}8,8,2h[8:1],,7,7,1h[8:1],,8xpp8[8:1]*qq8[8:1],,B7/B1,,,,,,
{16}7,4,6,3,5,2,6,4,3qq4[8:1]/5pp4[8:1],,,,53,,,,
{16}2,2,8h[8:1],,1,1,7h[8:1],,1xqq1[8:1]*pp2[8:1]b,,C,,,,,,
{16}5,4,6,1,5-1[8:1],3,6x,4x,5xqq5[8:1]*pp5[8:1],,,,,,,,
{16}2,8,1,7,3,6,4,5,4xpp4[8:1],,4xqq4[8:1],,B6/B5,,B2/B3,,
{8}7xh[8:1],B6/B5,2xh[8:1],B4/B3,5pp5[8:1]*qq5[8:1],,,,
{16}1,1,6,6,3,3,5<8[8:1],,2,3,4,5xh[16:3],,,Cf,,
{16}7,5,6,3,5,2,7,4,3qq5[8:1]/6pp4[8:1],,,,36,,,,
{16}7,7,1h[8:1],,8,8,2h[8:1],,8qq8[8:1]*pp8[8:1],,B7/B1,,,,,,
{16}2,4,3,6,4,7,2,5,6pp4[8:1]/3qq5[8:1],,,,63,,,,
{16}2,2,7h[8:1],,1,1,8h[8:1],,1pp1[8:1]*qq1[8:1],,C,,,,,,
{16}6,4,7,3,8,2,1-5[8:1],,5pp5[8:1]*qq5[8:1],,,,,,,,
{16}2,8,3,7,4,6,3,5,4-1[8:1]*-7[8:1],,35,,4,,,,
{16}8-4[8:1],,7,,2>5[8:1]/8,,1,,2/6<1[8:1],,6,,4h[8:1],,,,
{8}48,37,26,15,
{16}1,5,1,5,
{24}1x,2x,3x,5x,6x,7x,
{16}2,5,3,3,8,4,6,6,1x>4[8:1]*<6[8:1],,,,1b,,,,
{16}5,2,4,4,1,7,5,5,8x-5[8:1]*-3[8:1],,,,8b,,,,
{16}4,6,1,1,5,3,8,8,4x-8[8:1]*-2[8:1],,,,4b,,,,
{16}1,7,1,7,2,8,2,8,1,1,1,1,8,8,8,8,
{2}2xbqq5[2:3]/7xbpp4[2:3],,,,6xbpp4[2:3]/3xbqq5[2:3],,,,1-5[16:1],
