&title=Hachi films
&artist=Data_D
&first=0
&des=譜面-100哈
&des_5=譜面-100哈
&lv_5=13+
&inote_5=(130){4},,,,{16}7,
4-1[8:1],5-8[8:1],2,,4,{8}5,{16},,,2,{8}4h[8:1],{16}3,5,
1,8,2,4,3,5,2,2,8,5,6,4,5,3,4,4,
2,5,8,7,1,8,2,2,6,4,5,3,4,2,6,6,
1,8,2,4,3,5,2,2,8,5,6,4,5,3,4,4,
2,5,8,7,1,8,2,2,6,4,5,3,4,2,6,6,
{12}3h[12:1],{24}6,5,{48},{16}8,1,7,4,5,2,4,4,2,4,4,2,4,
{12}3h[12:1],{24}6,5,{48},{16}8,1,7,4,5,2,4,4,2,4,4,2,4,
1,8,2,4,3,5,2,2,8,5,6,4,5,3,4,4,
2,5,8,7,1,8,2,2,6,4,5,3,4,2,6,6,
1h[16:1],4h[16:1],3h[16:1],5h[16:1],2,2,6,6,5,7,1,8,3w7b[8:1],4,2,6,
,,,,,2<6v4[16:5],6,4,{8}5xh,{16}5xh,5xh,,5xh,,5xh,
{12}3h[12:1],{24}6,5,{48},{16}8,1,7,4,5,2,4,4,2,4,4,2,4,
{12}3h[12:1],{24}6,5,{48},{16}8,1-3b[16:1],7,4v1[8:1]*v7-5[24:5],5,{2}1b,
{16}1,8,2,4,3,5,2,2,8,5,6,4,5,3,4,4,
2,5,8,7,1,8,2,2,6,4,5,3,4,2,6,6,
{8}4h[8:1],7h[8:1],{16}6,7h[8:1],,8,{8}7h[8:1],{16}5,7h[8:1],,1,7,7,
{8}4,5/2h[8:1],{16}1,2h[8:1],,3,{8}2h[8:1],{16}8,2h[8:1],,4,2,2,
{8}7h[8:1],{16}3,4,5,4,5,6,3,4,5,4,5,6,1,8,
{8}2h[8:1],{16}6,5,{8}7/4,{16}3,4,{24}5/2,3,4,5,{48},{16}7,8-3[8:1],6,5-8[8:1],7,
{4}8,{8}2h[8:1],4h[8:1],{16}5,5h[8:1],,6,{8}6h[8:1],{16}7,7h[8:1],
,6,5,7,{8}4h[8:1],8h[8:1],{16}1,1h[8:1],,2,{8}2h[8:1],{16}3,3h[8:1],
,5,5,4,{8}6h[8:1],{16}2,4,4,6,5,5,3,4,4,7,
5,5,2,4,{8}3h[8:1],{16}6,5,{8}7/4,{16}3,4,{24}5/2,3,4,5,{48},{16}7,
8-3[8:1],6,4-7[8:1],5,{4}8,{16}1,8,2,4,3,5,2,2,
8,5,6,4,5,3,4,4,2b,6h,1,8,2,4,3,5,
2,2,8,5,6,4,5,3,4,4,2,5,8,7,1,8,
2,2,6,4,5,3,4,2,6,6,2,5,8,7,1,8,
2,2,6,4,5,3,4,2,6,6,{24}3h[12:1],,6,{16}5,8,1,7,
4,5,2,4,4,2,4,4,2,4,{8}3bh[16:1],3bh[16:1],{24}3h[12:1],,6,
{16}5,8,1,7,4,5,2,4,4,2,4,4,2,4,1,8,
2,4,3,5,2,2,8,5,6,4,5,3,4,4,2b,6h,
1,8,2,4,3,5,2,2,8,5,6,4,5,3,4,4,
1,8,2,4,3,5,2,2,8,5,6,4,5,3,4,4,
2,5,8,7,1,8,2,2,6,4,5,3,4,2,6,6,
{12}3h[12:1],{24}6,5,{48},{16}8,1,7,4,5,2,4,4,2,4,4,2,4,
{8}5b/3b,4b/7b,{12}3h[12:1],{24}6,5,{48},{16}8,1-3b[16:1],7,4v1[8:1]*v7-5[24:5],5,{4}1b,
,{16}1,8,2,4,3,5,2,2,8,5,6,4,
5,3,4,4,2,5,8,7,1,8,2,2,6,4,5,3,
4,2,6,6,{4}4-1[2:1],,,,4>1[2:1],
,,,7p1[2:1]/1p7[2:1],
,,,{8}3h[8:1],
1,3h[8:1],6,{4}3<4<5<6[2:1],
{2},4q8[2:1],
,1s5[2:1],
,4>1-6[2:1]*<7-2[2:1],
,{8}5h[8:1],8,5h[8:1],3,
{4}5V36[2:1],{2},{8}3h[1:1],E5,
,B3,,B6,,B1,8h[1:1],E2,
,B8,,B3,,B5,4h[1:1],E7,
,B2,,E6,,B4,7,6,
3,5,{4}2h[4:1],{16}5h[8:1],{8},{16}3,{8}6,6,
{16}4h[8:1],{8},{16}4h[8:1],{8},4-1[8:1],3,3,{16}2,8,,8,
1h[8:1],{8},{16}1h[8:1],{8},1-6[8:1],8,8,{16}7,5,,5,
6h[8:1],{8},{16}6h[8:1],{8},6-3[8:1],2,2,{16}1-5[8:1],1,,4,
{8}1>4[8:1],4,1-5[8:1]*-6[8:1],7,{4}1,{16}B6,B3,{8}C,
{4}1b/8b,{8}4h[8:1],7h[8:1],{16}6,7h[8:1],,8,{8}7h[8:1],{16}5,7h[8:1],
,1,7,7,{8}4,5/2h[8:1],{16}1,2h[8:1],,3,{8}2h[8:1],{16}8,2h[8:1],
,4,2,2,{8}7h[8:1],{16}3,4,5,4,5,6,3,4,5,4,
5,6,1,8,{8}2h[8:1],{16}6,5,{8}7/4,{16}3,4,{24}5/2,3,4,5,{48},{16}7,
8-3[8:1],6,5-8[8:1],7,{4}8,{8}2h[8:1],4h[8:1],{16}5,5h[8:1],,6,
{8}6h[8:1],{16}7,7h[8:1],,6,5,7,{8}4h[8:1],8h[8:1],{16}1,1h[8:1],,2,
{8}2h[8:1],{16}3,3h[8:1],,5,5,4,{8}6h[8:1],{16}2,4,4,6,5,5,
3,4,4,7,5,5,2,4,{8}3h[8:1],{16}6,5,{8}7/4,{16}3,4,
{24}5/2,3,4,5,{48},{16}7,8-3[8:1],6,4-7[8:1],5,{4}8,{8}4h[8:1],7h[8:1],
{16}6,7h[8:1],,8,{8}7h[8:1],{16}5,7h[8:1],,1,7,7,{8}4,5/2h[8:1],
{16}1,2h[8:1],,3,{8}2h[8:1],{16}8,2h[8:1],,4,2,2,{8}7h[8:1],{16}3,4,
5,4,5,6,3,4,5,4,5,6,1xh[96:1],8xh[96:1],{8}2bxh[8:1],{16}6,5,
{8}7/4,{16}3,4,{24}5/2,3,4,5,{48},{16}7,8-3[8:1],6,5-8[8:1],7,{4}8,
{8}2h[8:1],4h[8:1],{16}5,5h[8:1],,6,{8}6h[8:1],{16}7,7h[8:1],,6,5,7,
{8}4h[8:1],8h[8:1],{16}1,1h[8:1],,2,{8}2h[8:1],{16}3,3h[8:1],,5,5,4,
{8}6h[8:1],{16}2,4,4,6,5,5,3,4,4,7,5,5,2,4,
{8}3h[8:1],{16}6xh[96:1],5xh[96:1],{8}4bxh[96:1]/7bxh[96:1],{16}3,4,{24}5/2,3,4,5,{48},{16}7,8-3[8:1],6,4-7[8:1],5,
{4}8,{16}1,8,2,4,3,5,2,2,8,5,6,4,
5,3,4,4,2,6,3,5,4,7,{8}3h[16:1],{16}6,4,5,3,
4,2,{8}5h[16:1],{16}3,5,4,6,{8}3h[16:1],5h[16:1],{16}4,6,3,5,
{8}4h[16:1],6h[16:1],4h[16:1],{16}5,4,{8}5h[16:1],4h[16:1],5h[16:1],{16}4,5,
4bs8[8:3],5bz1b[16:5],{8}4b,,,,,,,,,,,,,,,,,,,,E5,
E
