&title=エクストラ・マジック・アワー
&artist=AKINO
&first=0
&des=reflectW
&lv_5=11+
&inote_5=(180)
{1},
{4}1v3[4:1],,,1v4[4:1],
{4},,1-5[4:1],,
{4},1v6[4:1],,,
{4}1v7[4:1],,,1>1[4:3]*<1[4:3],
{8},,,,,,,,
{8}35,2,17,6,5/3h[4:1],,1,1h[4:1],
{8},8V61[8:3]*p3[8:3],8,,,,,,
{16}2,1,2,,38,,6,5,6,,37,,15,,,,
{8}4,5,7b/8b,5,4,3,26,7,
{16}3,,6,,4,,5,,1,2,3,4,5,6,7,8,
{8}1,6,57,4,3,2,16,{16}7,8,
{16}7,,1,,6,,6,,3h[8:1]/5h[8:1],,,,4h[8:1]/6h[8:1],,,,
{8}5,4,2/1,4,5,6,73,2,
{16}6,,3,,5,,4,,6,5,4,3,2,1,8,7,
{8}6b/2b,,,1b/8b,,,4b/5b,{16},,
{16}2bqq7[2:1]/7bpp2[2:1],,2b/7b,,,,,,,,,,,,,,
{4}3/5h[4:1],3,3/7h[4:1],3,
{4}6/4h[4:1],6,6/2h[4:1],6,
{4}5pp1[2:1]/4,4,4,4,
{4}6/3p8[2:1],6,6,6,
{4}4/5h[4:1],3,2/7h[4:1],1,
{4}8/4h[4:1],7,6/2h[4:1],5,
{4}3q4[2:1]/4p3[2:1],,,,
{16}25,,3,4,3,,1q7[4:1]/7p1[4:1],,,,17,,,,,,
{8}35,,64,,7-4[8:1],8,7,,
{8}2-6[8:1],1,2,,57,,24,,
{8}37,4,6,5,37,2,8,1h[4:1],
{8},5,5<1[4:1],,1V75[4:1],,5,,
{8}3,4,2,5h[4:1],,4,3,2h[4:1]/4,
{8},5,6,5/7h[4:1],,3,3p7[4:1],,
{8}7^4[4:1],,4q8[4:1],,8^3[4:1],,6,6,
{8},54,54,,6,7,8<1[8:7]*V64[8:4],1,
{8},,,,,,,,
{2}5<1[2:1],4>8[2:1],
{8}7qq4[16:12],,,,3qq8[16:12],,,,
{8},,,,5-1[4:1],,5h[4:1],,
{8},,28,,1-5[8:1],1,8-6[8:1],8,
{8}4-8[8:1],4,5-7[8:1],5,1-3[8:1],1,6,,
{8}4b/5b,,,2b/7b,,,3b/6b,,
{8}1b/7b,2b/8b,,,{32}1,2,3,4,5,6,7,8,1-6[8:1],,,,,,,,
{8}1q5[8:1]/2,,1b/7bq4[4:1],,4V68[4:1],3,3,{32}3pp4[4:1]*V14[4:1],,,,
{32},,,,,,,,,,,,,,,,6-8[8:1],,,,1pp5[8:3],,,,6,,,,1,,,,
{8},,8^6[8:1],,3qq4[8:3],3,5pp4[8:3],5,
,,,,,2-5[8:1]/6,5V31[4:1],2,
6,,6,,7-4[8:1]/3,4V61[4:1],,1V75[4:1]*V35[4:1],
,,,,3/6qq8[8:3],4,3,2,
,1p7[8:7],1,,2h[4:1],,,,
3h[4:1],,,,{32}8-5[8:1]/7,,,,,,,,8-3[8:1]/1,,,,,,,,
{8}8p4[8:1]/7,,8b/2bv5[4:1],,5V31[4:1],6,7,{32}8V64[4:1]*p3[4:1],,,,
{32},,,,,,,,,,,,,,,,2-5[8:1],,,,5V38[8:2],,,,2,,,,7h[8:3],,,,
{8},,1h[8:2],,6h[8:2],,4h[8:2],,
1h[8:2],,8h[8:2],,6h[8:2],,3h[8:2],,
4w8[8:11],,,,,,,,
,,,,,,,,
25,3,4,5h[4:1]/8,,6,4,5h[4:2],
,,1,1h[4:1],,6,2,7,
3qq7[4:5],,,,6,,,,
6,,,,6,,{24}45,,54,,45,,
{16},,
,,,,,,,,,,3h[4:1],,,,
{16}7,,5,,6,,4,,5,,3,,4,,2h[4:1],,
{16},,1^6[8:1],,2,,3,,4,5,4,,3^8[8:1],,4,,
{16}5,,6,,7pp5[8:3],,8,,1,,2,,3,,4,,
{16}4,5,4,5,3,6,3,6,2,7,2,7,{32}1,2,3,4,5,6,7,8,
{16}15,,,,2p2[1:2]/8,,6p6[16:30]/4,,,,,,,,,,
{16},,,,,,,,,,,,,,,,
{16},,,,,,,,,,,37,,{16}4,6,4,
