&title=AMAZING MIGHTYYYY!!!!
&artist=WAiKURO
&first=0
&des=CupLid
&lv_7=14+?
&inote_7=(185){18},,,{4},,,,,,,,,,,,,,6-1[0.973##0.1622],
4-1[0.6486##0.1622],7/3,
6/4,8-6[0.973##0.1622]*-5[0.973##0.1622],2-4[0.6486##0.1622]*-5[0.6486##0.1622],7/3,
2/8,1v4[8:1],1bv7[0##0.1622],8v5[8:1],
8bv2[0##0.1622],4v7[8:1],4bv1[0##0.1622],5v2[8:1],
5bv8[0##0.1622],7/3-7[0.973##0.1622],6/4,5,
3/7,6/2-6[0.973##0.1622],5/3,4,
2/6,{8}5/1-5[0.973##0.1622],5,6/2,6,7/3,7,
1/8,8,{16}8,8,8,8,8,8,8,8,{4}8-4[8:1],
8b<5[0##0.1622]*>3[0##0.1622]*-5[0##0.1622]*-3[0##0.1622],2/6,{8}4-2[0.6486##0.1622],6-8[0.4865##0.1622],{16}5,5,,,{4}6/4,
7/3,{8}5-7[0.6486##0.1622],3-1[0.4865##0.1622],{16}4,4,,,{4}3/5,
8-4[0.973##0.1622],{8}1-5[0.6486##0.1622],3/6,{16}7,2,,,{4}8/1,
1-5[0.973##0.1622],{8}8-4[0.6486##0.1622],6/3,{16}2,7,,,{4}1/8,
8/7-5[8:1],7/4,8/7-4[8:1],
3/7b-5[0##0.1622],1/2-4[8:1],2/5,1/2-5[8:1],
6/2b-4[0##0.1622],6-2[2.2703##0.1622],5-1[1.6216##0.1622],4-8[0.973##0.1622],
3-7[8:1],3,4,5,
6,7-3[0.973##0.1622]/8-4[0.973##0.1622],6/5,{16}3,4,,,{4}8/7,
2-6[0.973##0.1622]/1-5[0.973##0.1622],3/4,{16}6,5,,,{4}1/2,
4-8[0.973##0.1622]/3-7[0.973##0.1622],5/6,{16}7,8,,,{4}4/3,
5-1[0.973##0.1622]/6-2[0.973##0.1622],4/3,{16}2,1,,,{4}5/6bs2[0##0.1622],
{8}7/8,6,5/4,3,2/1,3,
4/5,6,7-3[1.2973##0.1622]/8-3[1.2973##0.1622],6,5/4,3,2-6[0.973##0.1622]/1-6[0.973##0.1622],3,
4/5,6,{4}8/7,2/1,5b-1[0##0.1622]/4b-8[0##0.1622],
7b-4[0##0.1622]/2b-5[0##0.1622],{8}6/3,{16}7,8,{8}7v4[0.6486##0.1622],{16}2,1v4[0.4054##0.1622],{8}2,8,
{4}7/1,{8}5-1[0.973##0.1622]/8-4[1.1351##0.1622],6,{4}7/4,{8}6,6,
5,8,3-7[0.973##0.1622],{16}2,2,{8}4,{16}5,5,{4}2-6[8:1],
3/2,{8}8-4[0.6487##0.1622]/1-5[0.8108##0.1622],2,{4}6/3,{8}8,1,
{4}8b-6[0##0.1622],{8}1-5[0.6486##0.1622]/8-4[0.8108##0.1622],7,{4}3/6,{8}1,8,
{4}1b-3[0##0.1622],{8}4-8[0.973##0.1622]/1-5[1.1351##0.1622],3,{4}2/5,{8}3,3,
4,1,6-2[0.973##0.1622],{16}7,7,{8}5,{16}4,4,{4}7-3[8:1],
6/7,{8}1-5[0.6487##0.1622]/8-4[0.8108##0.1622],7,{4}3/6,{8}1,8,
{4}1b-3[0##0.1622],{8}8-4[0.973##0.1622]/1-5[0.973##0.1622],6,7/2,3,{4}4/5,
1/8bz4[0##0.1622],{8}6/3,7-4[0.973##0.1622],4/5,2-5[0.4865##0.1622],{16}6,3,{8}6,
2,7,{16}1-3[8:1],,,5,{8}1-5[8:1],6,7/1-3[8:1],7,
{4}1b-4[0##0.1622]/8b-6[0##0.1622]*-5[0##0.1622],{8}7/2,6-1[0.973##0.1622],1/8,3-8[0.4865##0.1622],{16}7,2,{8}7,
3,6,{24}2-6[0.6486##0.1622],3,4,5,,,7-3[0.6487##0.1622],6,5,4,,,{4}2,
7,{8}2/7,3-8[0.973##0.1622],8/1,6-1[0.4865##0.1622],{16}2,7,{8}2,
6,3,{16}5-7[8:1],,,1,{8}5-1[8:1],2,3/5-7[8:1],3,
{4}5b-8[0##0.1622]/4b-2[0##0.1622]*-1[0##0.1622],{8}3/6,2-5[0.973##0.1622],5/4,7-4[0.4865##0.1622],{16}3,6,{8}3,
7,2,{16}8,8,8,8,8,8,8,8,8,8,8,8,
{4}8v5[8:1]*v3[8:1],8b-5[0##0.1622]*-3[0##0.1622]*<5[0##0.1622]*>3[0##0.1622],,,,,,,,,,,,,,,,8<5b[1.2973##0.973],
{16}8,,,1,,,{8}1,
{4}8,{16}8b,,,2,,,{8}2,{16},3,,,{4}3,
1>4b[1.2973##0.973],{16}1,,,8,,,{8}8,
{4}1,{16}1b,,,7,,,{8}7,{16},6,,,{4}6,
{8}5-1b[0.973##0.1622],{16}4,5,{8}4,{16}4,5,{4}4-8b[8:1],
5b/4b,{8}3-7b[0.973##0.1622],{16}6,3,{8}6,{16}6,3,{4}6-2b[8:1],
3b/6b,{8}8-4b[0.973##0.1622],{16}1,8,{8}1,{16}1,8,{4}1-5b[8:1],
8b/1b,{8}2-6b[0.973##0.1622],{16}7,2,{8}7,{16}7,2,{4}7-3b[8:1],
2b/7b,{16}8-5b[0.973##0.1622],7,6,5,4v1b[0.6486##0.1622],3,2,1,{4}8,
8b/4b,{16}2-5b[0.973##0.1622],3,4,5,6v1b[0.6487##0.1622],7,8,1,{4}2,
2b/6b,{16}8-5b[0.973##0.1622],7,6,5,4v1b[0.6487##0.1622],3,2,1,{4}8,
8b/4b,7h[4:3],{8},2h[8:3],{16},,,,,,,,7-3[1.7027##0.1622],
,,8-4[1.2162##0.1622],,,{8}1-5[0.7297##0.1622],{4}2-6[8:1],
{16}2,,,1,,,{8}8,{16},7,,,,,{8}3-7[0.4865##0.1622]/6-2[1.1351##0.1622],
,4-8[0.4054##0.1622]/5-1[0.6487##0.1622],{16}3,,,4,,,{8}5,{4}6,
{16}7b-3[0##0.1622],,,8b-4[0##0.1622],,,{8}1b-5[0##0.1622],{16},2b-6[0##0.1622],,,3b-7[0##0.1622],,,4b-8[0##0.1622],
,,{8}5b-1[0##0.1622],{4}6b-2[0##0.1622],{16},,7/2,3/6,5/4-6b[0.8108##0.1622],,,4-7b[0.5676##0.1622],
,,{8}5/3,,4b,{16},4b-2[0##0.1622]*-1[0##0.1622]*-7b[0.2432##0.1622]*-6b[0.2432##0.1622],,,4b,,,4b-2[0##0.1622]*-1[0##0.1622],
,,,,8<6b[2.9189##0.1622],8,8,8,8,8,8,8,8-5b[2.2703##0.1622],8,8,8,
8,8,8,8,8>2b[1.6216##0.1622],8,8,8,8-3b[1.2973##0.1622],8,8,8,8p4b[0.973##0.1622],8,8q4b[0.8108##0.1622],8,
8V64b[0.6487##0.1622],8,8V24b[0.4865##0.1622],8,{4}8-4b[8:1],8b,1<7[8:1]*>3[8:1]*-6[8:1]*-4[8:1]*-5[8:1],
1,{8}8/2,8b<5[0##0.1622],,1b>4[0##0.1622],,7b<4[0##0.1622],
,2b>5[0##0.1622],,7-3[0.6486##0.1622]/8-4[0.6486##0.1622],6/5,4/3,2/1,8/7bz3[0##0.1622],
,7b<4[0##0.1622]*-4[0##0.1622]/8b>3[0##0.1622]*-3[0##0.1622],,,{4}5/4,{8}8-4[8:1]/1-5[8:1],6/3,
{4}1bs5[0##0.1622]/8bz4[0##0.1622],{8}6/3,7/2,{16}7,8,,4,5,3,,6,
{8}6-2[1.2973##0.1622],4,{16}2,1,,5,4,5,,3,{8}3-7[8:1],5,
{4}6/3,{8}1/8-4[2.2703##0.1622],{16}2,1,3,6,5,7,2,1,3,6,
5,7,{8}4,{16}3,4,3,6,5,6,3,4,2,6,5,7,
{4}8/1b-5[0##0.1622],{8}3/6,2/7,{16}2,1,,5,4,6,,3,
{8}3-7[1.2973##0.1622],5,{16}7,8,,4,5,4,,6,{8}6-2[8:1],4,
{4}3/6,{16}8<6[1.2973##0.1622],,,7-3[2.027##0.1622],,,{8}2>4[1.0541##0.1622],{16},3-7[1.5405##0.1622],,,{4}1-5[0.8108##0.1622],
{16}8,,,2,,,{8}1,{16},6/4,,,{4}7/3,
{8}1/8qq5[0.973##0.4865],{16}6,5,{8}6,{16}3,4,{8}3,7,
{4}8/1b>3[0##0.1622],{8}4,{16}3-8[0.8108##0.1622],4,{8}2,{16}6-1[0.4865##0.1622],5,{8}7,4/5,
{4}6/3,{8}8x/1xpp4[0.973##0.4865],{16}3,4,{8}3,{16}6,5,{8}6,2,
{4}1/8b<6[0##0.1622],{8}5,{16}6-1[0.8108##0.1622],5,{8}7,{16}3-8[0.4865##0.1622],4,{8}2,5/4,
{4}3/6,{8}7-3[2.2703##0.1622],3,8-4[1.6216##0.1622],4,1-5[0.973##0.1622],5,
2-6[8:1],6,{4}2,1,8,
7,{16}2v5[0.973##0.1622]/8v5[0.973##0.1622],,,4/6,,,{8}7/3,{16},5v8[1.5405##0.1622]*v2[1.5405##0.1622],,,{4}8/2,
{16}6/7,,,3/4,,,{8}1,{16},,7/3,6/4,
{4}5,7b<7[0##2.5946],,,,,,,,2b>2[0##2.5946],
{8},,,,,,,,,,,,,,6,
7-3[1.2973##0.1622],{16},8-4[1.2973##0.1622],,,1-5[1.2973##0.1622],,,2-6[1.2973##0.1622],
,,{8}3/4,5/6,7,{16},8,,,1,,,2,
,,{8}8/7,2/1,2/1,3/4,3/4,5/6,6/5,
7/8,8/7,{16}1-6b[1.6216##0.1622],1,1,1,1-4b[1.2973##0.1622],1,1,1,1v6b[0.973##0.1622],1,1v4b[0.8108##0.1622],1,
1<8-6b[0.6487##0.1622],1,1>2-4b[0.4865##0.1622],1,{4}2x/8x,1b,{8}5,{16}7,8,
{8}7,{16}2,1,{8}2,6,8,{16}7-4[0.8108##0.1622],8,{8}6,{16}2-5[0.4865##0.1622],1,
{8}3,8/1,{4}2/7,{8}4x/5xpp8[0.973##0.4865],{16}7,8,{8}7,{16}2,1,
{8}2,6,{4}5/4b>2[0##0.1622],{8}1,{16}2-5[0.8108##0.1622],1,{8}3,{16}7-4[0.4865##0.1622],8,
{8}6,1/8,{4}2/7,{8}3/6<1[1.2973##0.0405],5,4<5[1.2162##0.0405],3<4[1.0135##0.0405],
2>3[0.8108##0.0405],1>2[0.6081##0.0405],8>1[0.4054##0.0405],7>8[0.2027##0.0405],{32}6x,7x,8x,1x,2x,3x,4x,5,{4}6x,
4/5,{16}4/1>3[1.2973##0.1622],,,4/2-6[2.027##0.1622],,,{8}4/7<5[1.054##0.1622],{16},4/6-2[1.5405##0.1622],,,{4}4/8-4[0.8108##0.1622],
{16}1,,,7,,,{8}8,{16},3/5,,,{4}2/6,
8bw4[0##0.3243]*-4[0##0.3243]*<5[0##0.3243]*>3[0##0.3243],
E
