&title=Judgement
&artist=Tatsunoshin
&first=0.032
&des=albertoBradish
&lv_5=14+
&inote_5=(200){4},{8},,,,,,,,,,,,,,3xh[4:1],
4,5,6,4,5,6,4,
3,6,5,3,4xh[4:1],6,5,3,
6xh[4:1],5,4,3,5,4,3,5,
6,3,4,6,{24}3x,5,3,5,,,{8}4,6,
3xh[4:1],4,5,B6,4,5,B3,5,
4,B2,6,5,B7,3,4,5,
6x/B2/B3,5,4,5x/B8/B1,4,3,4x/B6/B7,3,
2,3x/C,2,1,8-4-8[4:1],4h[4:1],,,{1}Ch[4:3],
{8}6b/5b,6bxh[8:1]/5bxh[8:1],,3b/4b,{4}3bxh[8:1]/4bxh[8:1],{8}6b/8b,6bxh[8:1]/8bxh[8:1],
,3b/1b,{4}3bxh[8:1]/1bxh[8:1],{16}8x,7,6,5,2x,3,4,5,
{8}6b/7b,6bxh[8:1]/7bxh[8:1],,3b/2b,{4}3bxh[8:1]/2bxh[8:1],{8}7b/5b,7bxh[8:1]/5bxh[8:1],
,2b/4b,{4}2bxh[8:1]/4bxh[8:1],{16}5x,6,7,8,1,2,3,4,
{8}5/1bs5[4:1],,,7x-3[8:1],,,4,5,
5x-2[8:1],5x-8[8:1],,,1-5[8:1],2,{4}1x/6-2[8:1],
6x/4-7[8:1],{8}1,8-4[8:1]*-2[8:1],,8x,,5,
{6}6/8x,3/1x,4/5x,2x/3,6/7x,8/1x,
{8}3bx,4,5,1x,3,4,5x,4,
5,1x,5,4,3x,4,5x,4,
6x,5,4,8x,4,5,6x,5,
4,8x,5,4,5x,6,7x,8,
{16}2bx,1,2,1,2,1,3x,1,3,1,3,1,4x,1,4,1,
8bx,7,8,7,8,7,8,7,8x,6,8,6,8x,5,8,5,
8x,7,6,5,4,3,2,1,{32}8x,7x,6x,5x,4x,3x,2x,1x,8x,7x,6x,5x,4x,3x,2x,1x,
{1}8x/Cfh[1:1],
{4}E7/B7/B6/B2/B3/E3,{8}8x,4h,8,2h,8,6h,
8,6h,8,4h,8,2h,{4}8h[4:1],
Ch[4:7],{8}E4,E5,E6,E7,E8,E1,
2x,2x,{4}2x,{2}2x-6[8:1],
{4}5/8b-2[8:1],3/8b-6[8:1],5/8b-2[8:1],3/8b-6[8:1],
5/8b-2[8:1],3/8b-6[8:1],5/8b-2[8:1],{8}8b-6[8:1]/3v8[8:1],3,
{4}3bx/8bx,{8}5b-1[8:1],{16}3x/7x,4x/6x,{4}5bx-7[8:1]*-8[8:1],5bx-3[8:1]*-2[8:1],
5bx,1bx>4[8:1]*<6[8:1],1bx-5[8:1]*s5[8:1],Ch[64:1],
{8}3,4,3,2,6,5,6,7,
8/2b,3,4,5,8b/6,7,6,5,
{4}4bq7[8:3],1>4[8:1],1,{8}8x,{16}1,1,
8bxv3[8:1],,,6,,,{8}7,{16}1x,8,7,6,4x,3,2,1,
{4}8x/7x,{8}8/7,1,8/7,6,8/7,1,
8/7,6,8/7,5,8/7,4,7/8,8/1,
{4}1x/2x,{8}1/2,8,1/2,3,1/2,8,
1/2,3,1/2,4,1/2,5,8/7,{16}8x/7x,1x/6x,
{4}5x/2bx-5[8:1],{8}8-4[8:1],1,2-6[8:1],1,8-5[8:1],7,
{4}8bx/4,{8}2-5[8:1],1-5[8:1],2,1,{4}8,
{8}6x/5x,7/5,8/5,1/5,{16}1x,5,8,4,7x,3,6,2,
{8}5xh[8:1],B3/A3,1xh[8:1],A7/B7,{16}5x,6,7,8,1x,2,3,4,
{8}5/1b,{16}7,8,7,8,{8}6,{16}1/5,2,3,4,1/5,8,7,6,
{8}5h[8:1],{16}1x,2,{8}3/5h[8:1],{16}1x,8,{8}7/5h[8:1],{16}1x,2/6,3/7,4/8,{8}5/1,
{16}5xh[8:1],,,2,{8}5xh[8:1],3,5xh[8:1],4,5x,5x/6xh[4:1],
{16},,4x,5,6,7,8,1,5x,6,7,8,1,2,3,4,
{8}5bx-1[8:1],4-2[8:1],5,4,{16}5x,4,3,2,1,8,7,6,
{8}5bx-7[8:1],4-8[8:1],5,4,{16}1x,2,3,4,5,6,7,8,
{8}1b/2b,8b/4b,,8b/7b,{4}1b/5b,{8}5b/6b,8b/3b,
,4b/3b,{4}1b/6b,{16}8x,7,6,5,8x,1,2,3,
{4}4xh[8:1]/7xh[8:1],{8}6/5,{16}5,5,6,4,5,3,5,2,4,1,
{4}5xh[8:1]/2xh[8:1],{8}3/4,{16}4,4,3,5,4,6,4,7,5,8,
{4}1x-5[8:1],{8}1/3,4-2[8:1]*-1[8:1],,4x-6[8:1]*-7[8:1],,4x,
,2-6[8:1],8,2,{16}5x,4,3,2,1,8,7,6,
{4}5xh[8:1]/4xh[8:1],{8}3/4h[8:1],{16}2,2,{8}4h[8:1],5h[8:1],7h[8:1],6,
{4}4xh[8:1]/5xh[8:1],{8}6/5h[8:1],{16}7,7,{8}5h[8:1],4h[8:1],2h[8:1],3,
{6}4b/2b,7b/5b,1b/3b,6b/8b,2b/4b,7b/5b,
{2}1bw5[8:1],8bw4[8:1],
{1}2b-7-1>5-7-1[8:27]/6b-3-5<1-3-5[8:27],
,,{4},,,{8},{16}2x,
3x,
{2}4xh[1:2],E6,
E7,E8,
{4}1h[32:61],E1,E8,E7,
{16}5h[32:29],{4},,,{16},,{32}8x/4x,7x/3x,
{2}6x/2x-8v6-4[4:7],5,
7,1,
{4}2V86-4[4:3],3,2,1,
8h[8:7],{8},,,,4,4,
{2}2/6x-8v2-4[4:7],3,
1,7,
{4}6V82-4[4:3],5,6,7,
{1}B7/E7/B6/Cfh[1:1],
{8}1bx,2,3,4b/8b,7,6,5b/2b,3,
4,5b/7b,6,5,{16}4b/8,7,6,5,4bx,3,2,1,
{8}8b,7,6,5b/1b,2,3,4b/7b,6,
5,4b/2b,3,4,{16}5b/8b,7,6,5,3bx/4bx,2,1,8,
{8}7<4[8:1],8,1,2<7[8:1],3,4,5>2[8:1],6,
7v5[8:1],8,1,2,{16}1,2,3,4,6/5,7,8,1,
2,1,2,1,{8}3,{16}7,8,7,8,{8}6,{16}3,4,3,4,
{32}3bx,2,1,8,7,6,5,4,3bx,2,1,8,7,6,5,4,8bx,1,2,3,4,5,6,7,8bx,1,2,3,4,5,6,7,
{2}8h[2:1],{16}4,8,4,8,4,8,4,8,
3,7,3,7,3,7,3,7,2,6,2,6,2,6,2,6,
5x/8,1,2,3,7x,8,1,2,6x,7,8,1,4x,5,6,7,
{4}8-2[8:1]/4-6[8:1],8/4-8[8:1],8xw4[8:1],8x,
{8}Cf/8b<5[8:1],7,{16}8/4q8[8:1],3,{8}2,{4}4/1-6[8:1],{8}1-4[8:1],5,
1<6[8:1],7,1>4[8:1],3,{16}1/5,6,7,8,5,6,7,8,
{8}1b>4[8:1],2,{16}1/5p1[8:1],6,{8}7,{4}5/8-3[8:1],{8}8-5[8:1],4,
8>3[8:1],2,8<5[8:1],6,{16}8/4,3,2,1,4,3,2,1,
{8}8/4,{16}6,5,,8/3,,1,{8}2-6[8:1],1-7[8:1],2V48[4:1],1,
2,5,7,1,1/2,4,8/7,5,
1-5[8:1],5<3[2:1],1,4h[8:3],,,,,{2}B2/E3/B3/Ch[2:1],
{16}E1,E8,E7,E6,{4}E5,
{32}1b-5[8:1],2/8,3/7,4/6,{8}5-3-7[4:1],1,7,{4}6-2[8:1],{8}6<1[8:1],8,
6>3[8:1],4,6,2,{16}8/6,1,2,3,7,8,1,2,
{8}3-1[8:1],4-8[8:1],3-7[8:1],4-6-8[4:1],3,4-2b[8:1],,4,
{24}1bx,8,{12}7,{24}2bx,3,{12}4,{24}6b,7,{12}8,{24}3b,2,{12}1,{24}7b,6,{12}5,{24}2b,3,{12}4,
{8}8/1xh[8:1],{24}2,3,4,{8}8xh[8:1],{24}7,6,5,{16}1,4,1,4,1,3,1,2,
{8}1/8xh[8:1],{24}7,6,5,{8}1xh[8:1],{24}2,3,4,{16}8,5,8,5,8,6,8,7,
{8}8h[8:1],{16}7,8,{8}5,{16}2,8,4,6,3,7,1,6,2,5,
{2}1bs5[2:1],{4}7-3b[8:1],7x,
{24}4b/8b-4[8:1],3bx/7bx,2bx/6bx,1bx/5bx,,,{4}8-6-1-5b[2:1],{32}1x,2x,{16}3x,,,3,,,4,
{4}4bV28[4:1],{12}8,,7,{24}7x-1-3[4:1],6x,{12}5x,,4,,5,
{8}6v4b[8:1],4-8b[8:1],{4}6,{32}1xV35[4:1],2x,{16}3x,,,7,,,6,
{4}6bV42[4:1],{12}1,,8,{16}7,6,5,4,3,2,1,8,
{2}7/Ch[4:1],{16}8b-4[16:1],,,2b-6[16:1],,,{8}5bx,
{16}7b-4[16:1],,,3b-8[16:1],,,{8}6bx,{16}6b-1[16:1],,,2b-5[16:1],,,{8}8bx,
7b,7b,7b/A6/D6,7b,7b/A4/D4,7b,7b/A1/D1,7b,
{4}7b/Cf,{16}E7,E6,E5,E4,E3,D8,D7,D6,D5,D4,D3,D2,
{4}Ch[4:3],5,6,7,
Ch[4:3],4,3,2,
{8}5h[16:1],6h[16:1]/4h[16:1],7h[16:1]/3h[16:1],8h[16:1]/2h[16:1],{16}1,1,1,1,1,1,1,1,
{4}1-3[8:1]*>4[8:1],1-7[8:1]*<6[8:1],1-5[8:1],1w5[8:1],
{1}1b`Cf,
{8}4/5,4,4/5,4,{32}5,4,3,2,1,8,7,6,{4}4b-2b[8:1]/5b-1b[8:1],
5-7b[8:1]/4-8b[8:1]`Cf,4/5,{8}5-1[8:1],1-3[8:1],3-7[8:1],4,
5>2b[8:1],5,8<5[8:1],8,{24}1,2,3,4h[4:1],{96},,,,,,,,,,,{32}3,2,1,8,7,6,5,
{4}4/3>8[8:1],{16}7-3[8:1],6,{8}5,{4}7/4-6-1[8:1],{24}4/8,1,2,3,4,5,
{4}6x>3[8:1],{16}2-6[8:1],1,{8}8,2-4b[8:1],7,2-8[8:1],6-8b[8:1],
2-6[8:1],6-4[8:1],{4}2x,{24}1x,8,7,6,5,4,3x,2,1,8,7,6,
{1}1b-4-2-7[16:9]/5b-8-6-3[16:9],
{24}8,7,8,7,8,7,{8}8-4[8:1],6-2[8:1],8<3[24:5],6,{4}8,
{8}8-5[8:1],2,8-3[8:1],4,{16}8/4,5,6,7,8,1,2,3,
8/4-8[8:1],3/7,{8}2/6-1[8:1],4,6-3[8:1],3-5[8:1],6/2,1,8,
{6}8bh[8:1]/7bh[8:1],1bh[8:1]/6bh[8:1],2bh[8:1]/5bh[8:1],1bh[8:1]/2bh[8:1],8bh[8:1]/3bh[8:1],7bh[8:1]/4bh[8:1],
{8}1,{32}2b/1,3,4,5,{8}6,{32}7b/8,6,5,4,{8}3,{16}2,1,{8}7/8,6/5,
8,{32}7b/8,6,5,4,{8}3,{32}2b/1,3,4,5,{8}6,{16}7,8,{8}2/1,3/4,
{16}6,5,6,5,7,4,7,4,{32}8b,1,2,3,4,5,6,7,4b/8,3,2,1,8,7,6,5,
{1}4b>8v2[8:5]/8b<4v6[8:5],
{8}3xh[4:1],4,5,4h[4:1],5,6,6h[4:1],5,
4,5h[4:1],4,3,3h[4:1],4,6h[4:1],5,
3xh[4:1],4,5,4h[4:1],5,6,6h[4:1],5,
4,5h[4:1],4,3,5,6,8-4[1:4],2,
E
