&title=Sweet Halloween
&artist=葉月ゆら
&first=0.01
&des=おにねこ
&des_4=おにねこ
&des_5=おにねこ
&wholebpm=128
&MusicStart=63.7
&MusicEnd=80.6
&lv_4=9+
&lv_5=13
&inote_4=(128)
{1},
{4}
64,5,34,2,17,6,5/3-1[8:1],,
35,4,65,7,82,3,4/6-8[8:1],,
4-2[8:1],5,7-5[8:1],4,3-1[8:1],8-6[8:1],4v1[16:3],,
7-5[8:1],4,2-4[8:1],8,
{16}71,,,71,,,71,,8-5[8:1],,,,1b,,,,
34,,2,,34,,5,,3-8[8:1]/4,,,
,5,,,,6,,6,,45,,45,,3-5[8:1],,,,6,,,,
53,,4,,57,,6,,5-1[8:1]/3,,
,,4,,,,3,,3,,45,,45,,6-8[8:1],,,,
4,,,,
65,,7,,65,,4,,6-1[8:1]/5,,,
,4,,,,3,,3,,54,,54,,6-4[8:1],,,,3,,,,
46,,5,,42,,3,,4-8[8:1]/6,,
,,5,,,,6,,6,,54,,54,,3-8[8:1],,,,
6,,,,
{8}
5,5,64,,3,3,24,,6,6,75,,1,1,82,,
1-3[8:1],,7-5[8:1],,2-4[8:1],,8-6[8:1],,2-4[8:1],,7-5[8:1],,
{16}1b,,,1b,,,7,,
{8}
4,4,35,,6,6,75,,3,3,24,,8,8,17,,
8-6[8:1],,2-4[8:1],,7-5[8:1],,1-3[8:1],,7-5[8:1],,2-4[8:1],,
8b,,8b,,
{16}
4,,4,,5,,5,,3v2[16:3]/6,,,,5,,,,7-1[8:1],,,,4-2[8:1],,,,5-1[8:1],,,,,,,,
3,,3,,4,,5,,4/6-8[16:2],,,,5,,,,4-2[16:2],,,,6,,,,5w1[8:1],,,,,,,,
{8}2-4[8:1],,5,,6-8[8:1],,1,,
2-4[8:1],,7-5[8:1],,2h[4:2],,,,
{4}6h[4:2],4,2h[4:2],4,7h[4:2],5,1h[4:1],5,
{16}
3pp7[8:4]/7,,,,,,,,,,,,,,,,15,,15,,26,,37,,4-8[8:1]/8,,,,6b,,,,
{4}5-8[8:1],1-4[8:1],6-1[8:1],2-5[8:1],
{8}7-2[8:1],7,3-6[8:1],3,8-5[8:1],8,4,,
{16}34,,34,,2,,2,,18,,18,,7-5[8:1],,,,4-2[8:1],,4,,7-5[8:1],,7,,1h[4:1],,,,5,,,,
{4}4-1[8:1],8-5[8:1],3-8[8:1],7-4[8:1],
{8}2-7[8:1],2,6-3[8:1],6,1-4[8:1],1,5,,
{16}65,,65,,7,,7,,81,,81,,2-4[8:1],,,,5-7[8:1],,5,,2-4[8:1],,2,,8-4[8:1],,,,,,,,
{16}2h[8:4],,,,4,,,,6h[8:4],,,,4,,,,1>4[4:1],,,,,,,,8<5[4:1],,,,,,,,
4>1[4:1],,,,,,,,5<8[4:1],,,,,,,,{4}1pp5[8:4],,,,8h[8:6],,
{16}2,,,,3,,,,
{4}
4-2[8:1]/5-1[8:1],,4-8[8:1]/5-7[8:1],,
5-7[8:1],4-8[8:1],5w1[8:1],,
3-7[8:1],5,6-2[8:1],3,
4-6[8:1],7,5-3[8:1],2,
8-6[8:1]/1-5[8:1],,8-4[8:1]/1-3[8:1],,
1-3[8:1],8-4[8:1],1w5[8:1],,
7-3[8:1],1,2-6[8:1],7,
8-4[8:1],2,1-5[8:1],7,
{4}8qq5[4:8],,,,,,,,{32},,,,,,,4qq1[4:10],{4},,,,,,,,,,{16},,,{1}8b,,,,,,,,,,,,,,,,E
&inote_5=(128)
{1},
{4}
5h[4:1],3h[4:1],7h[4:1],5h[4:1],6h[4:1],1h[4:2],5v2[8:1],,
3h[4:1],8h[4:1],5h[4:1],6h[4:1],3h[4:1],5h[4:1],4w8[8:1],,
2-4[8:1],2/5v8[8:1],5/1-3[8:1],1/6-8[8:1],6/1v4[8:1],1/5<4[8:3],1h[8:3],,
1-3[8:1],1/7<5[8:1],7/1>4[8:1],{24}1/8,,,8,7,6,
{16}5h[8:1]/1h[8:1],,,6h[8:1]/2h[8:1],,,73,,4>1[8:1]/8<5[8:1],,,,4b/8b,,,,
1/4h[16:2],,3,,7/5h[16:2],,6,,4/5-7[8:1],,,
4,5,,2h[8:1],,8<5[8:1],2,8,2,8,,3-1[8:1],,3,,5,5h[16:4],,,,,
5h[16:2]/3,,4,,5h[16:2]/7,,6,,5/3h[16:4],,
6,6>4[8:1],,,3-1[8:1],,3,,7<5[8:1],,7,,1>4[8:1],,1,,
{24}4,5,6,{16}7h[16:3],,,,
5h[16:2]/7,,8,,3/4h[16:2],,2,,1-3[8:1]/5,,,
8,1,,6h[8:1],,4>1[8:1],6,4,6,4,,7<5[8:1],,7,,1,1h[16:4],,,,,
1h[16:2]/7,,8,,1h[16:2]/3,,2,,1/5h[16:4],,2,2h[16:5],,,5<7[16:2],,5,,2,,3,,4,
4qq2[8:1]/8qq6[8:1],,,,,,,,,
{8}
24,3,57,6,14,3,58,6,13,2,68,7,5/1<5[4:1]*-7[8:1],,,,
1>3[8:1],8,7-5[8:1],8,2>4[8:1],1,7-5[8:1],8,2-4[8:1],1,7-5[8:1],8,
{16}1h[8:1],,,1h[16:2],,,15,,
{8}
51,7,14,2,58,6,14,3,57,6,24,3,1/5>1[4:1]*-3[8:1],,,,
6<8[8:1],5,4>2[8:1],5,6<1[8:1],5,4>1[8:1],5,6-1[8:1],5,4-1[8:1],5,
6-2[8:1],,3-7[8:1],,
{16}
5,,5h[4:1],,4,,4h[8:1],,5h[16:4],,3,3h[16:3],,,7h[8:2],,5h[8:3],,,,8h[8:6],,,,6>3[8:1],,,,,,,,
2,,2h[4:1],,4,,4h[8:1],,1h[16:6],,,5h[8:1],,,5h[8:1],,7h[16:6],,,5h[8:1],,,5h[8:1],,1-5[8:1],,,,1b,,,,
{8}7v4[8:1],8,2>5[8:1],1,7<4[8:1],8,2v5[8:1],1,8-4[8:1],,4-8[8:1],,8w4[8:1],,,,
{16}
3h[8:1]/4h[8:1],,,5h[8:1]/4h[8:1],,,56,,2h[8:1]/4h[8:1],,,5h[8:1]/4h[8:1],,,57,,
2h[8:1]/3h[8:1],,,5h[8:1]/4h[8:1],,,67,,1h[8:1]/3h[8:1],,,5h[8:1]/4h[8:1],,,68,,
2pp5[8:4]/5,,,,6,,,,7,,,,8h[4:1],,,,2b,8,4,5,8,7,1,6,5-8[8:1]/2-6[8:1],,,,2b/5b,,,,
{4}7-1[8:1]/3-1[8:1],7-5[8:1]/3v8[8:1],7-1[8:1]/3-1[8:1],7v4[8:1]/3,
{8}2>5[8:1],2,7<4[8:1],7,1w5[8:1],1,,,
{16}7,5,6,5,7h[16:4],,4p8[8:1],,4,,7,6,5q1[8:1],,,,3p7[8:1],,3,,5v2[8:1],,5,,4w8[8:1],,,,,,,,
{4}5v8[8:1]/3-7[8:1],5p1[8:1]/3-1[8:1],5-7[8:1]/3q7[8:1],3v8[8:1]/5,
{8}7<4[8:1],7,3>8[8:1],3,5w1[8:1],5,,,
{16}2,4,3,4,2h[16:4],,4q1[8:1],,4,,2,3,4p7[8:1],,,,5q2[8:1],,5,,4p8[8:1],,4,,6p2[8:1]*v3[8:1],,,,,,,,
{16}7qq4[8:5],,,,3,,2,,1-3[8:1],,,,1,,,,7qq4[8:5],,,,,,2,1,8>3[8:1],,,,,,,,
7h[16:3],,,5h[16:3],,,4h[16:2],,2h[16:3],,,4h[16:3],,,5,,{4}4q2[8:4]/5p7[8:4],,,,8h[8:7]/1h[8:2],,
{16}1,,,2,,,3,,
{4}
4-8[8:1],4-6[8:1]*-7[8:1],4-2[8:1],4v1[8:1]/8-6[8:1],
8v3[8:1],8<5[8:1]/2v5[8:1],8q4[8:1]/2-4[8:1],
8<5[4:1]/2,5>2[4:1],2p8[16:6],4h[8:1],
4>1[4:1],1<6[4:1],6>3[16:4],3<6[4:1],8h[8:1],
8p4[8:1],8-2[8:1]*-3[8:1],8-6[8:1],8v3[8:1]/4>1[8:1],
4v7[8:1],4>2[8:1]/6p2[8:1],4q8[8:1]/6<8[8:1],
4>1[4:1]/6,1<6[4:1],6p4[16:6],8h[8:1],
8<5[4:1],5>2[4:1],2<7[16:4],7-3[16:4],4h[8:1],
{4}4pp7[4:8],,,,,,,,{32},,,,,,,8pp3[4:10],{4},,,,,,,,,,{16},,,{1}5b,,,,,,,,,,,,,,,,E
