&title=Good bye crisis
&artist=「Hello,good-bye」オープニング
&first=0.00
&lv_1=4
&lv_2=5
&lv_3=7
&lv_4=10
&lv_5=11+
&des_1=Tane
&des_2=Tane
&des_3=Tane
&des_4=Tane
&des_5=Tane
&des=Tane
&inote_1=
(178){1},
,,,,
,,,,
{8}1,,,,
3,,,,
{8}8,,,,
6,,,,
{8}4,,,,
2,,,,
{8}5,,,,
7,,,,
{8}1^4[2:3],,,,
,,,,
{8},,,,
,,,,
{8}5,,,,
,,,,
{8}2b/7b,,,,
,,,,
{8}4,,,,
2,,,,
{8}5,,,,
7,,,,
{8}1,,,,
3,,,,
{8}8,,,,
6,,,,
{8}4^1[2:3],,,,
,,,,
{8},,,,
,,,,
{8}8,,,,
,,,,
{8}3b/6b,,,,
,,,,
{8}1h[1:1],,,,
,,,,
{8},,,,
,,,,
{8}8h[1:1],,,,
,,,,
{8},,,,
,,,,
{8}2h[1:1],,,,
,,,,
{8},,,,
,,,,
{8}7h[1:1],,,,
,,,,
{8},,,,
,,,,
{8}2,,,,
,,,1-6[2:1],
{8},,,,
,,,,
{8}2,,,,
,,,1-5[2:1],
{8},,,,
,,,,
{8}2,,,,
,,,1q5[2:1],
{8},,,,
,,,,
{8}6h[8:3],,,,
,,6h[1:1],,
{8},,,,
,,,,
{8}7,,,,
,,,8-3[2:1],
{8},,,,
,,,,
{8}7,,,,
,,,8-4[2:1],
{8},,,,
,,,,
{8}7,,,,
,,,8p4[2:1],
{8},,,,
,,,,
{8}3h[8:3],,,,
,,3h[1:1],,
{8},,,,
,,,,
{1}5<1[4:6],,,,
{8}4>8[4:6],,,,
,,,,
{8},,,,
,,,,
{8}5,,,,
,,5,,
{8},,,,
4,,,,
{8}8<4[4:6],,,,
,,,,
{8},,,,
,,,,
{8}1>5[4:6],,,,
,,,,
{8},,,,
,,,,
{8}8,,,,
8,,,,
{8}1,,,,
1,,,,
{1}1>8[2:3]/8<1[2:3],,
{8}4,,,,
2,,,,
{8}5,,,,
7,,,,
{8}1,,,,
3,,,,
{8}8,,,,
6,,,,
{8}4^1[2:3],,,,
,,,,
{8},,,,
,,,,
{8}1,,,,
,,,,
{8}3b/6b,,,,
,,,,
{8}1,,,,
3,,,,
{8}8,,,,
6,,,,
{8}4,,,,
2,,,,
{8}5,,,,
7,,,,
{8}1^4[2:3],,,,
,,,,
{8},,,,
,,,,
{8}4,,,,
,,,,
{8},,,,
,,,,
{8}2v5[8:3]/8v5[8:3],,,,
,,,,
{8}6,,,,
3,,,,
{8}27,,,1b-4[2:3]/8b-5[2:3],
,,,,
{8},,,,
,,,,{8},,,,
,,,,
{1},,,,,,,,E
&inote_2=
(178){1},
,,,,
,,,,
{8}1,,2,,
3,,4,,
{8}8,,7,,
6,,5,,
{8}4,,3,,
2,,1,,
{8}5,,6,,
7,,8,,
{8}1^4[2:1],,,,
,,,,
{8}8^5[2:1],,,,
,,,,
{8}4^1[2:1],,,,
,,,,
{8}2b/7b,,,,
,,,,
{8}4,,3,,
2,,1,,
{8}5,,6,,
7,,8,,
{8}1,,2,,
3,,4,,
{8}8,,7,,
6,,5,,
{8}4^1[2:1],,,,
,,,,
{8}5^8[2:1],,,,
,,,,
{8}1^4[2:1],,,,
,,,,
{8}3b/6b,,,,
,,,,
{8},,2,,
,,2,,
{8},,2,,
,,2,,
{8},,7,,
,,7,,
{8},,7,,
,,7,,
{8},,3,,
,,3,,
{8},,3,,
,,3,,
{8},,6,,
,,6,,
{8},,6,,
,,6,,
{8}2,,,,
,,,1-6[2:1],
{8},,,,
,,,,
{8}2,,,,
,,,1-5[2:1],
{8},,,,
,,,,
{8}2,,,,
,,,1q5[2:1],
{8},,,,
,,,,
{8}8,,,7,
,,6h[1:1],,
{8},,,,
,,,,
{8}7,,,,
,,,8-3[2:1],
{8},,,,
,,,,
{8}7,,,,
,,,8-4[2:1],
{8},,,,
,,,,
{8}7,,,,
,,,8p4[2:1],
{8},,,,
,,,,
{8}1,,,2,
,,3h[1:1],,
{8},,,,
,,,,
{1}5<2[4:7],,,,
{8}4>7[4:7],,,,
,,,,
{8},,,,
,,,,
{8}5,,,,
,,5,,
{8},,,,
4,,,,
{8}8<3[4:7],,,,
,,,,
{8},,,,
,,,,
{8}1>6[4:7],,,,
,,,,
{8},,,,
,,,,
{8}8,,,,
8,,,,
{8}1,,,,
1,,,,
{1}1>8[2:3]/8<1[2:3],,
{8}4,,3,,
2,,1,,
{8}5,,6,,
7,,8,,
{8}1,,2,,
3,,4,,
{8}8,,7,,
6,,5,,
{8}4^1[2:1],,,,
,,,,
{8}5^8[2:1],,,,
,,,,
{8}1^4[2:1],,,,
,,,,
{8}3b/6b,,,,
,,,,
{8}1,,2,,
3,,4,,
{8}8,,7,,
6,,5,,
{8}4,,3,,
2,,1,,
{8}5,,6,,
7,,8,,
{8}1^4[2:1],,,,
,,,,
{8}8^5[2:1],,,,
,,,,
{8}4^1[2:1],,,,
,,,,
{8},,,,
,,,,
{8}2v5[8:3]/8v5[8:3],,,,
,,,,
{8}6,,,,
3,,,,
{8}27,,,1b-4[2:3]/8b-5[2:3],
,,,,
{8},,,,
,,,,{8},,,,
,,,,
{1},,,,,,,,E
&inote_3=
(178){1},
{8}4,,,3,
,,3,,
{8},3,,,
3,,,,
{8}5,,,6,
,,6,,
{8},6,,,
6,,,,
{8}45,,,45,
,3,,3,
{8},6,,6,
,,,,
{8}18,,18,,
,2,,2,
{8},7,,7,
,,,,
{8}5,,1,,
2,,3,,
{8},,6,,
7,,8,,
{8}8,,1,,
2,,3,,
{8},,8,,
7,,6,,
{8}5^8[2:1],,,,
,,,,
{8}12,,,,
78,,,,
{8}5pp4[2:1],,,,
,,,,
{8}27,,,18,
,1b/8b,,,
{8}4,,8,,
7,,6,,
{8},,3,,
2,,1,,
{8}1,,8,,
7,,6,,
{8},,1,,
2,,3,,
{8}4^1[2:1],,,,
,,,,
{8}56,,,,
34,,,,
{8}5<4[4:5],,,,
,,,,{1},
{8}7,,,2,
,2,,2,
{8},2,,2,
,,,,
{8}2,,,7,
,7,,7,
{8},7,,7,
,,,,
{8}7,,,1,
,1,,1,
{8},1,,1,
,,,,
{8}2,,,8,
,8,,8,
{8},8,,8,
,,,,
{8}2-5[2:1],,,,
,,,1-6[2:1],
{8},,,,
,,,,
{8}2-4[2:1],,,,
,,,1-5[2:1],
{8},,,,
,,,,
{8}2^4[2:1],,,,
,,,1q5[2:1],
{8},,,,
,,,,
{8}28,,,37,
,,4h[1:1]/6h[1:1],,
{8},,,,
,,,,
{8}7-4[2:1],,,,
,,,8-3[2:1],
{8},,,,
,,,,
{8}7-5[2:1],,,,
,,,8-4[2:1],
{8},,,,
,,,,
{8}7^5[2:1],,,,
,,,8p4[2:1],
{8},,,,
,,,,
{8}71,,,62,
,,5h[1:1]/3h[1:1],,
{8},,,,
,,,,
{1}5<2[4:7],,,,
{8}4>7[4:7],,,,
,,,,
{8},,,,
,,,,
{8}5,,,5,
,,5,,
{8},5,,,
4,,4,,
{8}8<3[4:7],,,,
,,,,
{8},,,,
,,,,
{8}1>6[4:7],,,,
,,,,
{8},,,,
,,,,
{8}8,,8,,
8,,78,,
{8}1,,1,,
1,,12,,
{1}1>8[2:3]/8<1[2:3],,
{8}8,,4,,
3,,2,,
{8},,7,,
6,,5,,
{8}5,,4,,
3,,2,,
{8},,5,,
6,,7,,
{8}8^5[2:1],,,,
,,,,
{8}43,,,,
65,,,,
{8}8qq1[2:1],,,,
,,,,
{8}36,,,45,
,4b/5b,,,
{8}1,,5,,
6,,7,,
{8},,2,,
3,,4,,
{8}4,,5,,
6,,7,,
{8},,4,,
3,,2,,
{8}1^4[2:1],,,,
,,,,
{8}87,,,,
21,,,,
{8}8<1[4:5],,,,
,,,,{1},
{8}2v5[8:3]/8v5[8:3],,,,
,,,,
{8}6,,6,,
3,,3,,
{8}27,,,1b-4[2:3]/8b-5[2:3],
,,,,
{8},,,,
,,,,{8},,,,
,,,,
{1},,,,,,,,E
&inote_4=
(178){1},
{8}3,3,3,3h[4:1],
,,3h[4:1],,
{8},3h[4:1],,,
3h[8:1],,4,4,
{8}6,6,6,6h[4:1],
,,6h[4:1],,
{8},6h[4:1],,,
6h[8:1],,5,5,
{8}4,5,4,6,
,3,,7,
{8},2,,8,
{16},,1,8,
1,,,,
{8}18,18,18,18,
,56,,34,
{8},45,,45,
45,,36,,
{8}5h[4:3],,1,,
2,,3,3h[8:7],
{8},,6,,
7,,8,,
{8}8h[4:3],,1,,
2,,3,3h[8:9],
{8},8,8,,
7,,6,,
{8}5qq8[2:1],,,,
,,,2,
{8}2,,7,7,
,36,,5,
{8}5pp4[2:1],,,,
,,,3,
{8}3,,6,6,
,1b/8b,,,
{8}4h[4:3],,8,,
7,,6,6h[8:7],
{8},3,3,,
2,,1,,
{8}1h[4:3],,8,,
7,,6,6h[8:9],
{8},1,1,,
2,,3,,
{8}4pp1[2:1],,,,
,,,7,
{8}7,,2,2,
,63,,4,
{8}4h[8:3],,,5<4[1:1],
,,,,{1},
{8}7-4[8:1],,,2h[8:1],
,2h[8:1],,2h[8:1],
{8},2h[8:1],,2,
2-4[8:1],,,,
{8}2-5[8:1],,,7h[8:1],
,7h[8:1],,7h[8:1],
{8},7h[8:1],,7,
7-5[8:1],,,,
{8}7-4[8:1],,,1h[8:1],
,1h[8:1],,1h[8:1],
{8},1h[8:1],,1,
1-5[8:1],,,,
{8}2-5[8:1],,,8h[8:1],
,8h[8:1],,8h[8:1],
{8},8h[8:1],,8,
8-4[8:1],,,,
{8}2-5[8:1],,1-6[8:1],,
,,,2^5[8:1],
{8},1^6[8:1],,,
,3,3,,
{8}2-4[8:1],,1-5[8:1],,
,,,2^4[8:1],
{8},1q5[8:1],,,
,3,3,,
{8}2-5[8:1],,1-4[8:1],,
,,,2-4[8:1],
{8},1-5[8:1],,,
,3,3,,
{8}2h[4:1]/8h[4:1],,,3h[4:1]/7h[4:1],
,,46,,
{8}5,5,6,7,
8,1,2,3,
{8}7-4[8:1],,8-3[8:1],,
,,,7^4[8:1],
{8},8^3[8:1],,,
,6,6,,
{8}7-5[8:1],,8-4[8:1],,
,,,7^5[8:1],
{8},8p4[8:1],,,
,6,6,,
{8}7-4[8:1],,8-5[8:1],,
,,,7-5[8:1],
{8},8-4[8:1],,,
,6,6,,
{8}7h[4:1]/1h[4:1],,,6h[4:1]/2h[4:1],
,,35,,
{8}4,4,3,2,
1,8,7,6,
{1}5<2[4:7],,4>7[4:7],,
{8}5<2[4:7],,,,
,,,,
{8},,,,
,,,,
{8}4h[4:1],,,3h[4:1],
,,5h[4:1],,
{8},6h[4:1],,,
2h[4:1],,7h[4:1],,
{8}1>6[4:7],,,,
,,,,
{8},,,,
,,,,
{8}8,,,7,
,,6^3[4:3],,
{8},,,,
,,,,
{8}3h[4:1],,4,,
3,4,3,3,
{8}6h[4:1],,5,,
6,5,6,6,
{8}3,3,34,34,
6,6,56,56,
{8}2,2,24,24,
7,18,,,
{8}5-8[8:1],,1,,
8-5[8:1]/2,,3,3h[8:5],
{8},6,6,,
5-8[8:1],,4-1[8:1],,
{8}8-5[8:1],,1,,
5-8[8:1]/2,,3,3h[8:5],
{8},7,7,,
8-5[8:1],,1-4[8:1],,
{8}5qq8[2:1],,,,
,,,2,
{8}2,,7,7,
,36,,45,
{8}4/5pp4[2:1],,,,
,,,3,
{8}3,,6,6,
,1b/8b,,,
{8}4-1[8:1],,8,,
1-4[8:1]/7,,6,6h[8:5],
{8},3,3,,
4-1[8:1],,5-8[8:1],,
{8}1-4[8:1],,8,,
4-1[8:1]/7,,6,6h[8:5],
{8},2,2,,
1-4[8:1],,8-5[8:1],,
{8}4pp1[2:1],,,,
,,,7,
{8}7,,2,2,
,36,,6,
{8}6,6,65,65,
3,3,43,43,
{16}3,2,1,,{8}6,6,
{16}6,7,8,,
3,,3,,
{8}2v5[8:3]/8v5[8:3],,,,
,,,6,
{8}6,,3,3,
,45,,18,
{8}27,27,36,36,
45,45,4b/5b,,
{8}36,3b/6b,,2,
15,26,37,48,
{8}1bqq6[4:5]/5bqq2[4:5],,,,
,,,,{8},,,,
,,,,{8},,,,
,,,,
{1},,,,,,,,E
&inote_5=
(178){1},
{8}5,4,3,2/4h[4:1],
,3,2/4h[4:1],,
{8}3,2/4h[4:1],,3,
2h[4:1]/4,3,4,5,
{8}4,5,6,7/5h[4:1],
,6,7/5h[4:1],,
{8}6,7/5h[4:1],,6,
7h[4:1]/5,6,5,4,
{8}5,4,5,3h[4:1],
,6h[4:1],,2h[4:1],
{8},7h[4:1],,1,
{16},,8,1,
8,,,,
{8}18,27,36,24,
,57,,45,
{8},36,,18,
1-4[8:1]/8-5[8:1],,18,,
{8}4h[4:1],,2V47[8:1],,
1h[1:1],,8,8,
{8},5,5,,
3>7[8:1],,4h[4:1],,
{8}5h[4:1],,7V52[8:1],,
8h[1:1],,1,1,
{8},4,4,,
6<2[8:1],,5h[4:1],,
{8}4V68[2:1]*q1[2:1],,,,
,,,2,
{8}38,,5,62,
,7h[1:1],,5,
{8}5pp2[8:3],,,,
,,,34,
{8}34,,47,5-2[8:1]/6-1[8:1],
,5b/6b,,,
{8}4h[4:1],,2V48[8:1],,
1h[1:1],,7,7,
{8},6,6,,
3>7[8:1],,4h[4:1],,
{8}5h[4:1],,7V51[8:1],,
8h[1:1],,2,2,
{8},3,3,,
6<2[8:1],,5h[4:1],,
{8}3V51[2:1]*V58[2:1],,,,
,,,7,
{8}61,,4,37,
,2h[4:1],,4>7[2:1],
{8}4,,,5h[8:3],
,,,,
{16}6,5,6,,
3,4,3,,
12,,12,,
78,,78,,
{8}7-4[8:1],,,1h[4:1],
,2h[4:1],,3-6[8:1],
{8},7h[4:1],,8,
8-4[8:1],,1h[4:1],,
{8}2-5[8:1],,,8h[4:1],
,7h[4:1],,6-3[8:1],
{8},2h[4:1],,1,
1-5[8:1],,8h[4:1],,
{8}7,6,7,8-3[8:1],
,4h[4:1],,3h[4:1],
{8},2-5[8:1],,1,
8-4[8:1],7,8,,
{8}2,3,2,1-6[8:1],
,5h[4:1],,6h[4:1],
{8},7-4[8:1],,8,
1-5[8:1],2,1,,
{8}3-8[8:1],,7-3[8:1],,
1h[8:3],,,4-8[8:1],
{8},1-4[8:1],,5-1[8:1],
,2,2,,
{8}3-6[481],,7-3[8:1],,
4h[8:3],,,1-5[8:1],
{8},4-1[8:1],,8-4[8:1],
,2,2,,
{8}3-7[8:1],,7-3[8:1],,
2h[8:3],,,7,
{8},7v2[8:1]/2q7[8:1],,,
,1,1,1,
{8}2h[4:1]/8h[4:1],,,3h[4:1]/7h[4:1],
,,1pp4[4:3]*qq6[4:3],,
{8},,,,
,,,,
{8}6v1[8:1],,3^6[8:1],,
8h[8:3],,,5v2[8:1],
{8},8^5[8:1],,4-8[8:1],
,7,7,,
{8}6v3[481],,2^7[8:1],,
5h[8:3],,,8v3[8:1],
{8},5^8[8:1],,1-5[8:1],
,7,7,,
{8}6-2[8:1],,2-6[8:1],,
7h[8:3],,,2v7[8:1],
{8},6v3[8:1],,3-5[8:1],,8,8,8,
{8}7h[4:1]/1h[4:1],,,6h[4:1]/2h[4:1],
,,35,4,
{8}5,4,{16}5,4,5,,
{8}4,5,4,36,
{1}2<5[4:7],,4<2[4:7],,
{8}3>5[4:7],,,,
,,,,
{8},,,,
,,,,
{8}4h[4:1],,,5h[4:1]/6h[4:1],
,,5h[4:1],,
{8},3h[4:1]/4h[4:1],,,
27,,{16}1,8,1,,
{8}2/7>5[4:7],,,,
,,,,
{8},,,,
,,,,
{8}1,,,2,
,,3qq7[4:3],,
{8},,,,
,,,,
{8}5h[4:1]/6,,6,,
56,6,56,4,
{8}4h[4:1]/3,,3,,
43,3,43,2,
{8}18,7,6,5,
18,2,3,4,
{8}18,7,6,5,
4,36,,,
{8}7h[4:1]/5,,8-4[8:1],,
1h[4:3]/8,,5,5,
{8},2,2V86[8:1],,
4-8[8:1],,5h[4:1],,
{8}3h[4:1],,1-5[8:1],,
8h[4:3]/1,,4,4,
{8},7,7V13[8:1],,
5-1[8:1],,4h[4:1],,
{8}2V47[2:1]*qq2[2:1],,,,
,,,6,
{8}15,,3,47,
,56,,7-5[8:1],
{8}5v8[8:3]*V31[8:3],,,,
,,,12,
{8}12,,25,3-8[8:1]/4-7[8:1],
,3b/4b,,,
{8}2h[4:1]/4,,1-5[8:1],,
8h[4:3]/1,,4,4,
{8},7,7V53[8:1],,
1-5[8:1],,2h[4:1],,
{8}6h[4:1],,8-4[8:1],,
1h[4:3]/8,,5,5,
{8},2,2V46[8:1],,
8-4[8:1],,7h[4:1],,
{8}5V72[2:1]*V71[2:1],,,,
,,,3,
{8}84,,6,52,
,43,,3,
{8}12,8,7,6,
78,1,2,3,
{16}3,4,3,,{8}25,25,
{16}6,5,6,,
47,,47,,
{8}2v5[8:3]/8v5[8:3],,,,
,,,36,
{8}36,,45,4-1[8:1]/5-8[8:1],
,45,,27,
{8}1/8,2/6,3/7,4/5,
3/6,2/7,1b/8b,,
{8}45,2b/7b,,36,
13,5/8,5/7,4/8,
{8}2b-6[4:5]/1bs5[4:5],,,,
,,,,{8},,,,
,,,,{8},,,,
,,,,
{1},,,,,,,,E
