&title=千鳥
&artist=ヨルシカ
&first=0.02
&des=Yuzuki
&clock_count=4
&lv_5=13
&inote_5=(120)
{1},
{16}
8bz4[2:1]/4b-1[2:1],,,,,,,,,,,,,,,,
2b/7b,,,,34,,1,,28,,4,,3,4,1,,6,5,7,,8,4,6,,1-5[8:1]*-4[8:1],,,,1,,,,
74,,,,65,,8,,17,,5,,6,5,8,,,2x,4x,3x,4x<8[8:1],,8xq1[4:1],,,,,,,,,,
7b/2b,,,,65,,8,,17,,5,,6,5,8,,3,4,2,,1,5,3,,8-4[8:1],,,,,,,,
25,,,,34,,1,,28,,4,,3,4,1,,,7x,5x,6x,5x>1[8:1],,1x<5[8:1]*p4[8:1],,,,,,,,,,
2^5[8:1],,,,6,,,,1q6[8:1],,,,7,,7,,8-4[8:1],,,,8^5[8:1]/4^1[8:1],,,,,,,,1-5[8:1],,,,6<4[4:1],,,,4,,,,1V37[16:3],,,,6,,6,,,,18,,18,,,,7v4[8:1]/3v8[8:1],,,,37,,,,
7^4[8:1],,,,3,,,,8p3[8:1],,,,2,,2,,1<4[16:3],,,,2x,,2x,,,,1,,8-4[8:1],,,,3>5[4:1],,,,5,,,,7s3[16:4],,,,2,,2,,,,81,,81,,,,2v5[8:1]/6v1[8:1],,,,62,,,,
7-5[12:1],,,,4-8[8:1],,,,3,,,,1,,1,,8-4[8:1]/2-5[8:1],,,,8^3[8:1]/2^7[8:1],,,,28,,,,6h[4:1],,,,4h[4:1],,,,2V85[4:1],,,,5V37[4:1],,,,2,,2,,,,18,,18,,,,7^4[8:1]/3^8[8:1],,,,37,,,,
2-4[12:1],,,,5-1[8:1],,,,6,,,,8,,8,,8-4[8:1],,,,3,,3,,25,,,,7h[4:1],,,,5h[4:1],,,,4<8[4:1],,,,8>4[4:1],,,,5,,5,,,,81,,81,,,,2^5[8:1]/6^1[8:1],,,,62,,,,
8-5[2:1]/4h[4:3],,,,,,,,,,,,,,,,4pp3[2:1],,,,,,,,,,,,,,,,
6pp2[4:3],,,,,,,,,,,,,,,,,,3h[8:5]/8,,,,,,,,,,,,,,
{16}
8b^5[8:1]/4b^1[8:1],,,,8/4-8[8:1],,,,2,,,,18,,37,,,,4,,3,,25,,6^1[8:1],,7,,2^5[8:1],,3,,
8-4[8:1],,,,3^8[8:1]/8^5[8:1],,,,38,,,,E7/B7,,B3/E3,,,,6,,5,,7,,18,,4,,25,,7,,
8b^5[8:1]/4b^1[8:1],,,,8-4[8:1]/4,,,,5-7[12:1],,,,4x-2[8:1]*-8[8:1],,4x,,,,,,5x-7[8:1]*-1[8:1],,5x,,,,,,8<4[4:1],,8,,
4pp3[4:1],,,,3^8[8:1],,,,2,,3,,B8/E1,,B4/E5,,,,8,,5,,7,,35,,,,47,,2x,4x,
1bx^4[8:1]/5bx^8[8:1],,,,1/5-1[8:1],,,,7,,,,18,,26,,,,5,,6,,47,,3^8[8:1],,2,,7^4[8:1],,6,,
1-5[8:1],,,,6^1[8:1]/1^4[8:1],,,,61,,,,E3/B2,,B6/E7,,,,3,,4,,2,,81,,5,,74,,2,,
1b^4[8:1]/5b^8[8:1],,,,1-5[8:1]/5,,,,4-2[12:1],,,,5xw1[8:1],,5x,,,,,,4xw8[8:1],,4x,,,,,,8-4[8:1],,,,8^3[8:1]/4^7[8:1],,,,4b-8[8:1]/8,,,,7,,,,1,,1,,7,5,3,1,8<4[8:1]*>4[8:1],,,,8bw4[8:1],,,,8b,,,,
2b/7b,,,,3h[8:1]/4,,8,,4h[8:1],,1,,3,5,1,,6,5,7,,8,4,6,,1-4[8:1]*-5[8:1],,,,1,,,,
74,,,,6h[8:1]/5,,1,,5h[8:1],,8,,6,4,8,,,2x,4x,3x,4x<8[8:1],,8xq1[4:1],,,,,,,,,,
7b/2b,,,,6h[8:1]/5,,1,,5h[8:1],,8,,6,4,8,,3,4,2,,1,5,3,,8-4[8:1],,,,,,,,
25,,,,3h[8:1]/4,,8,,4h[8:1],,1,,3,5,1,,,7x,5x,6x,4hx[8:1],,8hx[8:1],,3hx[8:1],,7hx[8:1],,3,4,5,6,
E
